Welcome Guest ( Log In | Register )

 
Reply to this topicStart new topic
> Fragilitatem - I I [demo] (2015), Depressive Black Metal
post Dec 4 2019, 11:42:48
Post #1

неделимое
*****
Group: Металариец
Posts: 450
Releases: 16
On Forums: 8 years 2 months
Thanks: 367 time(s)
Russian Federation


(IMG:http://metalarea.org/images/audiocovers/2019_Dec/acov_tid331124_thumb.jpg)

*Artist: Fragilitatem
*Album: I I [demo]
*Year: 2015
*Genre: Depressive Black Metal
*Country: Russian Federation (IMG:http://metalarea.org/forum/style_images/flags/Russian%20Federation.png)
*Format: mp3@CBR128kbps (IMG:http://metalarea.org/images/bit_low.gif)
*Size: 45MB

Tracklist:
1. Untitled I 09:44
2. Untitled II 05:48
3. Untitled III 07:04
4. Untitled IV 10:01
5. Untitled V 11:23
6. Untitled VI 05:19
******************************
Total playing time: 49:19

(IMG:http://metalarea.org/images/youtube.png)

Technical info
(IMG:http://metalarea.org/images/spectrogram/2019_Dec/04db64bb683f5c921f711ea21137b0c9.png)
Input File: 02 - Untitled II.mp3
Channels : 2
Sample Rate : 44100
Precision : 16-bit
Duration : 00:05:48.57 = 15371761 samples = 26142.5 CDDA sectors
File Size : 5.58M
Bit Rate : 128k
Sample Encoding: MPEG audio (layer I, II or III)



Register


Go to the top of the page
  Insert nick Quick quote
+Quote Post

Reply to this topicStart new topic
1 User(s) are reading this topic (1 Guests and 0 Anonymous Users)
0 Members:

 



- Lo-Fi Version Support form
Copyrights and abuse reports form
Time is now: 11th December 2019 - 04:43:07