Welcome Guest ( Log In | Register )

> Ebola - 九重 (Kokonoe) [single] (2019), Folk/Depressive Black Metal
post Dec 4 2019, 13:49:55
Post #1

Литр
*
Group: Подсевший
Posts: 61
Releases: 11
From: Якутия
On Forums: 12 years 2 months
Thanks: 183 time(s)
Russian Federation


(IMG:https://metalarea.org/images/audiocovers/2019_Dec/acov_tid331126_thumb.jpg)

*Artist: Ebola
*Album: 九重 (Kokonoe) [single]
*Year: 2019
*Genre: Folk/Depressive Black Metal
*Country: Japan (IMG:https://metalarea.org/forum/style_images/flags/Japan.png)
*Format: mp3@CBR128kbps (IMG:https://metalarea.org/images/bit_low.gif)
*Size: 7MB

Tracklist:
1. 九重 (Kokonoe) 07:56
******************************
Total playing time: 7:56

(IMG:https://metalarea.org/images/youtube.png)


Extended info
Beautiful, Sad Melodies... Screams... Ethnic instruments that imagine the nature like Suibokuga (Traditional japanese style ink painting)... Fusion with Chinese and Yamato Symphony... Chinese style of Depressive Black Metal


Technical info
(IMG:https://metalarea.org/images/spectrogram/2019_Dec/1ef455d135a7f41507dcd4132fce721f.png)
Input File: Ebola - 九重 Kokonoe.mp3
Channels : 2
Sample Rate : 44100
Precision : 16-bit
Duration : 00:07:55.63 = 20975239 samples = 35672.2 CDDA sectors
File Size : 7.61M
Bit Rate : 128k
Sample Encoding: MPEG audio (layer I, II or III)



Register


Go to the top of the page
  Insert nick Quick quote
+Quote Post
 
Start new topic
Replies (1 - 2)
post Dec 5 2019, 09:37:31
Post #2

Group: Дух
Posts: 4
Releases: 0
From: Rus
On Forums: 8 months 4 days
Thanks: 0 time(s)



Здравствуйте, простите за беспокойство если пишу не туда, у меня на компе открытие сайта происходит с ошибкой наверное у меня программа глючит в чем проблема не могу понять, у меня у одного так или у всех?
Go to the top of the page
  Insert nick Quick quote
+Quote Post
post Feb 21 2020, 22:20:17
Post #3

Литр
*
Group: Подсевший
Posts: 99
Releases: 0
On Forums: 4 years 9 months
Thanks: 108 time(s)
Canada


То не сингл, а просто рип превьюшки единственного трека с ютуба/бандкампа. Альбом продаётся только в формате CD
Go to the top of the page
  Insert nick Quick quote
+Quote Post

Reply to this topicStart new topic
1 User(s) are reading this topic (1 Guests and 0 Anonymous Users)
0 Members:

 



- Lo-Fi Version Support form
Copyrights and abuse reports form
Time is now: 12th July 2020 - 05:15:08