Welcome Guest ( Log In | Register )

 
Reply to this topicStart new topic
> Macabre - Interment [demo] (1991), Death Metal
post Dec 4 2019, 14:03:20
Post #1

Подвал
**************
Group: Металариец
Posts: 13,925
Releases: 7879
From: Far East (Khabarovsk)
On Forums: 10 years 10 months
Thanks: 76767 time(s)
Russian Federation


(IMG:http://metalarea.org/images/audiocovers/2019_Dec/acov_tid331127_thumb.jpg)

*Artist: Macabre
*Album: Interment [demo]
*Year: 1991
*Genre: Death Metal
*Country: United States (IMG:http://metalarea.org/forum/style_images/flags/United%20States.png)
*Format: mp3@CBR192kbps
*Size: 37MB

Tracklist:
1. Interment (Intro) / Grim Reality 07:03
2. Forgotten 05:24
3. Passing Away 07:17
4. Empty Casket 03:42
******************************
Total playing time: 23:26

Extended info
Band from Turnersville, New Jersey (pre-Mortal Decay).
Recorded at AKA Studios, Franklinville, New Jersey in March 1991.


Technical info
(IMG:http://metalarea.org/images/spectrogram/2019_Dec/9ab4f10e099cd171fb3a10cbb81291f4.png)
Input File: 01-Interment (Intro) - Grim Reality.mp3
Channels : 2
Sample Rate : 44100
Precision : 16-bit
Duration : 00:07:03.20 = 18663164 samples = 31740.1 CDDA sectors
File Size : 10.2M
Bit Rate : 192k
Sample Encoding: MPEG audio (layer I, II or III)
Comments :
Title=Interment (Intro) / Grim Reality
Artist=Macabre (US, NJ)
Album=Interment (Demo)
Tracknumber=01
Year=1991
Genre=Death Metal



Register


Go to the top of the page
  Insert nick Quick quote
+Quote Post

Reply to this topicStart new topic
1 User(s) are reading this topic (1 Guests and 0 Anonymous Users)
0 Members:

 



- Lo-Fi Version Support form
Copyrights and abuse reports form
Time is now: 10th December 2019 - 11:24:50