Welcome Guest ( Log In | Register )

> Judas Iscariot - The Cold Earth Slept Below... (Re-Recorded) (2002), Black Metal (D)
post Dec 4 2019, 14:45:19
Post #1

неделимое
******
Group: Металариец
Posts: 602
Releases: 35
On Forums: 8 years 9 months
Thanks: 931 time(s)
Russian Federation


(IMG:http://metalarea.org/images/audiocovers/2019_Dec/acov_tid331128_thumb.jpeg)

*Artist: Judas Iscariot
*Album: The Cold Earth Slept Below... (Re-Recorded)
*Year: 2002
*Genre: Black Metal
*Country: United States (IMG:http://metalarea.org/forum/style_images/flags/United%20States.png)
*Format: mp3@CBR192kbps
*Size: 58MB

Tracklist:
1. Damned Below Judas 04:29
2. Wrath 00:28
3. Babylon 05:17
4. The Cold Earth Slept Below 05:05
5. Midnight Frost 03:42
6. Ye Blessed Creatures 03:28
7. Reign 03:02
8. Fidelity 04:04
9. Nietzsche 13:02
******************************
Total playing time: 42:37

Extended info
01-06 (Side Hatred)
07-09 (Side Wrath)
https://www.metal-archives.com/albums/Judas_Iscariot/The_Cold_Earth_Slept_Below.../533548


Technical info
(IMG:http://metalarea.org/images/spectrogram/2019_Dec/001a9ea34d6c6bb0d63e68f113e04835.png)
Input File: 02 - Wrath.mp3
Channels : 2
Sample Rate : 44100
Precision : 16-bit
Duration : 00:00:28.22 = 1244370 samples = 2116.28 CDDA sectors
File Size : 678k
Bit Rate : 192k
Sample Encoding: MPEG audio (layer I, II or III)



Register


Go to the top of the page
  Insert nick Quick quote
+Quote Post
 
Start new topic
Replies (1 - 2)
post Dec 4 2019, 20:12:51
Post #2

.
**************
Group: Металариец
Posts: 3,896
Releases: 0
On Forums: 4 years 5 months
Thanks: 2552 time(s)
Unknown


смысл?
у оригинала же звук нормальный.


Thanks:
(1) LVXXVL,
Go to the top of the page
  Insert nick Quick quote
+Quote Post
post Dec 5 2019, 20:04:06
Post #3

De Mysteriis Dom Sathanas
**************
Group: Металариец
Posts: 3,994
Releases: 63
From: Doom
On Forums: 11 years 11 months
Thanks: 3395 time(s)
Russian Federation


Такие ВЕЩИ надо на носителях слушать, желательно на виниле


Thanks:
(1) Occultas,
Go to the top of the page
  Insert nick Quick quote
+Quote Post

Reply to this topicStart new topic
1 User(s) are reading this topic (1 Guests and 0 Anonymous Users)
0 Members:

 



- Lo-Fi Version Support form
Copyrights and abuse reports form
Time is now: 12th July 2020 - 05:32:00