Welcome Guest ( Log In | Register )

 
Reply to this topicStart new topic
> Ildaruni - Towards Subterranean Realms [demo] (2018), Pagan/Black Metal
post Dec 4 2019, 16:09:03
Post #1

Group: Подсевший
Posts: 37
Releases: 9
From: Якутия
On Forums: 11 years 6 months
Thanks: 95 time(s)
Russian Federation


(IMG:https://metalarea.org/images/audiocovers/2019_Dec/acov_tid331130_thumb.jpg)

*Artist: Ildaruni
*Album: Towards Subterranean Realms [demo]
*Year: 2018
*Genre: Pagan/Black Metal
*Country: Armenia (IMG:https://metalarea.org/forum/style_images/flags/Armenia.png)
*Format: mp3@CBR128kbps (IMG:https://metalarea.org/images/bit_low.gif)
*Size: 13MB

Tracklist:
1. Treading the Path of Cryptic Wisdom 06:18
2. Towards Subterranean Realms 07:41
******************************
Total playing time: 13:59

(IMG:https://metalarea.org/images/youtube.png)

Technical info
(IMG:https://metalarea.org/images/spectrogram/2019_Dec/bc8d7c97ed9c76b476f7314fb4c2f024.png)
Input File: 01 - Treading the Path of Cryptic Wisdom.mp3
Channels : 2
Sample Rate : 44100
Precision : 16-bit
Duration : 00:06:18.55 = 16694011 samples = 28391.2 CDDA sectors
File Size : 6.06M
Bit Rate : 128k
Sample Encoding: MPEG audio (layer I, II or III)



Register


Go to the top of the page
  Insert nick Quick quote
+Quote Post

Reply to this topicStart new topic
1 User(s) are reading this topic (1 Guests and 0 Anonymous Users)
0 Members:

 



- Lo-Fi Version Support form
Copyrights and abuse reports form
Time is now: 10th December 2019 - 12:07:25