Welcome Guest ( Log In | Register )

> Monarque - Le Chant Du Cercueil [demo] (2019), Black Metal (D)
post Dec 4 2019, 16:53:52
Post #1

Trickster
Group Icon
Group: Moderation team
Posts: 3,885
Releases: 302
On Forums: 9 years 5 months
Thanks: 11757 time(s)
Russian Federation


(IMG:https://metalarea.org/images/audiocovers/2019_Dec/acov_tid331131_thumb.jpg)

*Artist: Monarque
*Album: Le Chant Du Cercueil [demo]
*Year: 2019
*Genre: Black Metal
*Country: Canada (IMG:https://metalarea.org/forum/style_images/flags/Canada.png)
*Format: mp3@CBR320kbps
*Size: 77MB

Tracklist:
01. Intro 01:00
02. Jusqu'à la mort 06:39
03. Le serment prononcé 04:47
04. Mes blessures 06:32
05. L'abysse aux charognes / Au seuil des ténèbres (Frozen Shadows cover) 08:29
06. Le serment prononcé (encore) 05:19
******************************
Total playing time: 32:46



Extended info
Personal purchase


Technical info
(IMG:https://metalarea.org/images/spectrogram/2019_Dec/42175f244c97def1de69f13b3e54a786.png)
Input File: Monarque - Le Chant du Cercueil - 03 Le Serment Prononcé.mp3
Channels : 2
Sample Rate : 44100
Precision : 16-bit
Duration : 00:04:47.49 = 12678441 samples = 21562 CDDA sectors
File Size : 11.6M
Bit Rate : 323k
Sample Encoding: MPEG audio (layer I, II or III)
Comments :
Title=Le Serment Prononcé
Artist=Monarque
Album=Le Chant du Cercueil
Tracknumber=3
Year=2019



Register


Go to the top of the page
  Insert nick Quick quote
+Quote Post
 
Start new topic
Replies (1 - 6)
post Dec 4 2019, 19:01:17
Post #2

I hate you all
**************
Group: Металариец
Posts: 2,264
Releases: 76
From: Ukraine
On Forums: 13 years 2 months
Thanks: 5694 time(s)
Ukraine


перезалей плз на другие обменники .
Go to the top of the page
  Insert nick Quick quote
+Quote Post
post Dec 4 2019, 19:10:27
Post #3

ЗмееЛев
********
Group: Металариец
Posts: 817
Releases: 18
On Forums: 9 years 3 months
Thanks: 1868 time(s)
Russian Federation


Зеркала:

Register


Go to the top of the page
  Insert nick Quick quote
+Quote Post
post Dec 5 2019, 20:01:54
Post #4

De Mysteriis Dom Sathanas
**************
Group: Металариец
Posts: 3,994
Releases: 63
From: Doom
On Forums: 11 years 11 months
Thanks: 3395 time(s)
Russian Federation


Достойное демо, группа одна из лучших в Канаде, ну а французский язык только плюс (IMG:style_emoticons/default/pray.gif)
Go to the top of the page
  Insert nick Quick quote
+Quote Post
post Dec 8 2019, 11:59:27
Post #5

Два Литра
**
Group: Завсегдатай
Posts: 116
Releases: 0
On Forums: 10 years 7 months
Thanks: 20 time(s)
Russian Federation


Последние работы у них нравятся. Правильным курсом идут.
Go to the top of the page
  Insert nick Quick quote
+Quote Post
post Dec 21 2019, 00:52:43
Post #6

Литр
*
Group: Подсевший
Posts: 77
Releases: 0
From: Россия
On Forums: 6 years 6 months
Thanks: 3 time(s)
Russian Federation


Атлична-атлична! Ждѣм полноформат.
Go to the top of the page
  Insert nick Quick quote
+Quote Post
post Feb 2 2020, 17:46:14
Post #7

i listen to black metal
**************
Group: Металариец
Posts: 2,584
Releases: 132
From: Москва-Лианозово
On Forums: 13 years 6 months
Thanks: 2144 time(s)
Russian Federation


почему же демо- денег что ли нет((((
если они ещё в 2009 году всем доказали что короли!!!
Go to the top of the page
  Insert nick Quick quote
+Quote Post

Reply to this topicStart new topic
1 User(s) are reading this topic (1 Guests and 0 Anonymous Users)
0 Members:

 



- Lo-Fi Version Support form
Copyrights and abuse reports form
Time is now: 12th July 2020 - 03:41:59