Welcome Guest ( Log In | Register )

> Правила / Rules

Тут только для чтения лежат низкобитрейтные (<192kbps) релизы, для которых есть аналоги в высокобитрейтных форумах.

Here goes (and stand in read only mode) low bitrate releases (<192kbps) which were already replaced by high bitrate releases in corresponding forums.

> Rattenfänger - Geisslerlieder (2019), Death Metal
post Dec 4 2019, 17:38:09
Post #1

Каждое ваше "Спасибо" помогает мне понять, что я делаю новости не напрасно.
**************
Group: Металариец
Posts: 2,109
Releases: 1858
From: Одесса
On Forums: 11 years 6 months
Thanks: 16308 time(s)
Ukraine


(IMG:http://metalarea.org/images/audiocovers/2019_Dec/acov_tid331133_thumb.jpg)

*Artist: Rattenfänger
*Album: Geisslerlieder
*Year: 2019
*Genre: Death Metal
*Country: Ukraine (IMG:http://metalarea.org/forum/style_images/flags/Ukraine.png)
*Format: mp3@CBR128kbps (IMG:http://metalarea.org/images/bit_low.gif)
*Size: 41MB

Tracklist:
1.De Laude Flagellorum
2.Materia Prima 06:26
3.Pestarzt
4.Les bons hommes 05:44
5.Sella Stercoraria
6.De Blasphemia in Latina Vulgaris
7.Funis Coronat Opus
******************************
Total playing time: 42:22



Extended info
Line - up:

Krechet - Bass (Deliberate Chaos, Drudkh, Precambrian, Windswept, ex-Blood of Kingu, ex-Old Silver Key, ex-Pragmatik, ex-Astrofaes)
Vlad - Drums, Keyboards (Deliberate Chaos, Drudkh, Precambrian, Windswept, ex-Blood of Kingu, ex-Dark Ages, ex-Old Silver Key, ex-Pragmatik, ex-Hate Forest (live))
Thurios - Guitars (Drudkh, ex-Astrofaes, ex-Blood of Kingu, ex-Old Silver Key, ex-Hate Forest, ex-Kladovest)
Roman Saenko - Guitars, Vocals (Drudkh, Precambrian, Windswept, ex-Blood of Kingu, ex-Dark Ages, ex-Hate Forest, ex-Old Silver Key, ex-Necrom, ex-Pragmatik)


Technical info
(IMG:http://metalarea.org/images/spectrogram/2019_Dec/6987980e940722a8f2915b91e96e5415.png)
Input File: 4. Les Bons Hommes.mp3
Channels : 2
Sample Rate : 44100
Precision : 16-bit
Duration : 00:05:44.86 = 15208150 samples = 25864.2 CDDA sectors
File Size : 5.52M
Bit Rate : 128k
Sample Encoding: MPEG audio (layer I, II or III)
Comments :
Title=Les Bons Hommes
Artist=Rattenfänger
Album=Geisslerlieder
Tracknumber=4
Year=2019
Genre=22



Register


Go to the top of the page
  Insert nick Quick quote
+Quote Post
 
Start new topic
Replies (1 - 6)
post Dec 4 2019, 19:06:18
Post #2

Четыре Литра
****
Group: Металариец
Posts: 371
Releases: 0
On Forums: 7 years 2 weeks
Thanks: 472 time(s)
Ukraine


Две превьюшные песни были очень крутыми, нужно ценить. Спасибо.
Go to the top of the page
  Insert nick Quick quote
+Quote Post
post Dec 4 2019, 19:24:37
Post #3

Маньяк
**********
Group: Металариец
Posts: 1,065
Releases: 0
From: Barcelona
On Forums: 10 years 8 months
Thanks: 610 time(s)
Spain


ЦИТАТА(technoboy69 @ Dec 4 2019, 19:06:18) *
Две превьюшные песни были очень крутыми, нужно ценить. Спасибо.

Нечего там ценить. И так ясно , что Саенко порожняк не гонит. Там либо хорошо, либо очень хорошо.


Thanks:
Go to the top of the page
  Insert nick Quick quote
+Quote Post
post Dec 4 2019, 20:03:05
Post #4

убивай меломанов
********
Group: Металариец
Posts: 893
Releases: 6
On Forums: 9 years 3 months
Thanks: 1153 time(s)
Ukraine


монолит!
и никакой нарочитой брутальности - вас просто культурно и интеллигентно заутюжат в землю, разве что башку оставят снаружи для башкотряса.


Thanks:
Go to the top of the page
  Insert nick Quick quote
+Quote Post
post Dec 4 2019, 20:58:53
Post #5

Правь статус, ####!111
**************
Group: Металариец
Posts: 19,812
Releases: 13428
From: Г.Харьков
On Forums: 7 years 7 months
Thanks: 232471 time(s)
Unknown


Вы тут особо не загуливайте-завтра 320 будет! (IMG:style_emoticons/default/metaler.gif)


Thanks:
Go to the top of the page
  Insert nick Quick quote
+Quote Post
post Dec 5 2019, 10:24:40
Post #6

Маньяк
**********
Group: Металариец
Posts: 1,232
Releases: 1
From: Беларусь
On Forums: 11 years 11 months
Thanks: 492 time(s)
Russian Federation


ЦИТАТА(Samaritianin @ Dec 4 2019, 22:58:53) *
Вы тут особо не загуливайте-завтра 320 будет! (IMG:style_emoticons/default/metaler.gif)

Can't wait for 320!


Thanks:
Go to the top of the page
  Insert nick Quick quote
+Quote Post
post Dec 5 2019, 13:05:45
Post #7

Правь статус, ####!111
**************
Group: Металариец
Posts: 19,812
Releases: 13428
From: Г.Харьков
On Forums: 7 years 7 months
Thanks: 232471 time(s)
Unknown


320
Register


Go to the top of the page
  Insert nick Quick quote
+Quote Post

Причина закрытия (Хогги 05-12-2019):
Closed TopicStart new topic
1 User(s) are reading this topic (1 Guests and 0 Anonymous Users)
0 Members:

 



- Lo-Fi Version Support form
Copyrights and abuse reports form
Time is now: 10th December 2019 - 11:21:06