Welcome Guest ( Log In | Register )

> Forum rules / Правила раздела

Here go releases which can't go to New releases forums due lack of information, stolen links or incorrect data and just founded in other sites links with minimum info. Reissue of this releases through Add release form with added/corrected data, info and own links highly welcomed.

Сюда уходят релизы, не пропущенные в основные релизные форумы по причинам отсутствия, недостаточности или неверности/некорректности сопровождающей информации, содержащие ссылки, указывающие на файлы, залитые не автором темы, а так же просто найденные где-то ссылки с минимумом информации. Переоформление тем отсюда через форму Добавления релиза с перезаливкой ссылок крайне приветствуется.

> Dog Fashion Disco - Tres Pendejos (2019), Avant-Garde Metal (D)
post Dec 4 2019, 18:53:24
Post #1

Маньяк
**********
Group: Металариец
Posts: 1,225
Releases: 220
On Forums: 11 years 6 months
Thanks: 4377 time(s)
Russian Federation


(IMG:http://metalarea.org/images/audiocovers/2019_Dec/acov_tid331136_thumb.jpg)

*Artist: Dog Fashion Disco
*Album: Tres Pendejos
*Year: 2019
*Genre: Avant-Garde Metal
*Country: United States (IMG:http://metalarea.org/forum/style_images/flags/United%20States.png)
*Format: mp3@CBR320kbps
*Size: 104MB

Tracklist:
01. Blue Shadows on the Trail (02:46)
02. The Darkest Days (04:26)
03. Give up the Ghost (04:14)
04. My Valentine (03:11)
05. Rapist Eyes (05:25)
06. Atlanta (04:06)
07. Sweet Insanity (04:37)
08. How Deep Is Your Love (03:53)
09. Surrounded by Porcelain Flies (04:07)
10. Die a Humble Death (04:25)
11. Toothless Dream (04:18)
******************************
Total playing time: 45:28

Preview 1

Extended info
Guitar, Cello, Banjo, Backing Vocals, Producer, Engineer – Jasan Stepp
Layout, Design – Patrick Lamond
Percussion, Producer, Mixed By, Mastered By, Engineer – Steve Wright (25)
Piano, Backing Vocals, Producer, Engineer – Tim Swanson (2)
Saxophone, Flute – Matt Rippetoe
Vocals, Guitar, Producer – Todd Smith


Technical info
(IMG:http://metalarea.org/images/spectrogram/2019_Dec/55f874c41787e09e1c919cf105bd435d.png)
Input File: 02-The Darkest Days.mp3
Channels : 2
Sample Rate : 44100
Precision : 16-bit
Duration : 00:04:26.36 = 11746564 samples = 19977.1 CDDA sectors
File Size : 10.7M
Bit Rate : 320k
Sample Encoding: MPEG audio (layer I, II or III)
Comments :
Title=The Darkest Days
Artist=Dog Fashion Disco
Album=Tres Pendejos
Tracknumber=02
Year=2019
Genre=Avant-garde Metal



Register


Go to the top of the page
  Insert nick Quick quote
+Quote Post
 
Start new topic
Replies (1 - 4)
post Dec 5 2019, 10:02:02
Post #2

Маньяк
**********
Group: Металариец
Posts: 1,225
Releases: 220
On Forums: 11 years 6 months
Thanks: 4377 time(s)
Russian Federation


FLAC tracks
Register


mp3@320 mirror
Register
Go to the top of the page
  Insert nick Quick quote
+Quote Post
post Dec 21 2019, 15:59:17
Post #3

Попсовик от брутала
**************
Group: Металариец
Posts: 7,320
Releases: 68
From: Минск
On Forums: 11 years 6 months
Thanks: 6608 time(s)
Belarus


Акустический рок.
Go to the top of the page
  Insert nick Quick quote
+Quote Post
post Dec 21 2019, 18:02:03
Post #4

melofags sniper
**************
Group: Металариец
Posts: 5,014
Releases: 0
From: Одеса
On Forums: 12 years 3 months
Thanks: 3760 time(s)
Ukraine


What is supposed to be avant garde and is not. A big debate. This band is more a patchwork than anything avantgarde. To be avantgarde you need at least your own style.
Go to the top of the page
  Insert nick Quick quote
+Quote Post
post Dec 21 2019, 20:55:14
Post #5

Пять Литров
*****
Group: Металариец
Posts: 429
Releases: 91
From: Moscow
On Forums: 14 years 2 months
Thanks: 2478 time(s)
Russian Federation


ЦИТАТА(Tular @ Dec 21 2019, 17:59:17) *
Акустический рок.

Ага (IMG:style_emoticons/default/20.gif)
Go to the top of the page
  Insert nick Quick quote
+Quote Post

Reply to this topicStart new topic
1 User(s) are reading this topic (1 Guests and 0 Anonymous Users)
0 Members:

 



- Lo-Fi Version Support form
Copyrights and abuse reports form
Time is now: 3rd June 2020 - 19:39:42