Welcome Guest ( Log In | Register )

> Artillery - In The Trash [compilation] (2019), Thrash Metal (D)
post Dec 5 2019, 14:03:00
Post #1

Serial Uploader
Group Icon
Group: V.I.P
Posts: 37,112
Releases: 35296
From: Lithuania
On Forums: 11 years 11 months
Thanks: 419037 time(s)
Lithuania


(IMG:https://metalarea.org/images/audiocovers/2019_Dec/acov_tid331181_thumb.jpg)

*Artist: Artillery
*Album: In The Trash [compilation]
*Year: 2019
*Genre: Thrash Metal
*Country: Denmark (IMG:https://metalarea.org/forum/style_images/flags/Denmark.png)
*Format: mp3@CBR320kbps
*Size: 105MB

Tracklist:
01. Mind of No Return 03:39
02. Day of Doom 04:28
03. All for You 03:36
04. We Are the Dead 05:06
05. Bitch 03:51
06. The Challenge 05:14
07. In the Trash 04:53
08. Therapy 04:04
09. Let There Be Sin 03:38
10. Hey Woman 03:30
11. Blessed Are the Strong 04:42
******************************
Total playing time: 46:41

(IMG:https://metalarea.org/images/myspace.png)


Technical info
(IMG:https://metalarea.org/images/spectrogram/2019_Dec/0facf07d1de246b2b865b4d35697427b.png)
Input File: 11 Blessed Are the Strong.mp3
Channels : 2
Sample Rate : 44100
Precision : 16-bit
Duration : 00:04:41.88 = 12430732 samples = 21140.7 CDDA sectors
File Size : 11.3M
Bit Rate : 320k
Sample Encoding: MPEG audio (layer I, II or III)
Comments :
Title=Blessed Are the Strong
Artist=Artillery
Album=In the Trash
Tracknumber=11/11
Year=2019-19-20
Discnumber=1/1



Register


Go to the top of the page
  Insert nick Quick quote
+Quote Post
 
Start new topic
Replies (1 - 1)
post Dec 5 2019, 20:40:10
Post #2

Русь Понад Усе!
**************
Group: Металариец
Posts: 4,291
Releases: 15
From: Украина
On Forums: 12 years 8 months
Thanks: 1703 time(s)
Ukraine


Наиболее интересный период в творчестве группы ... Если они демки чуть прилизали тогда должно звучать вкусно (IMG:style_emoticons/default/bye.gif) . Хотя и так должен быть интересный материал (IMG:style_emoticons/default/bye.gif)
Go to the top of the page
  Insert nick Quick quote
+Quote Post

Reply to this topicStart new topic
1 User(s) are reading this topic (1 Guests and 0 Anonymous Users)
0 Members:

 



- Lo-Fi Version Support form
Copyrights and abuse reports form
Time is now: 25th May 2020 - 18:08:51