Welcome Guest ( Log In | Register )

> Darkest End - Winter's Blood [ep] (2019), Melodic Death Metal
post Dec 5 2019, 16:22:58
Post #1

Serial Uploader
Group Icon
Group: V.I.P
Posts: 37,046
Releases: 35227
From: Lithuania
On Forums: 11 years 8 months
Thanks: 415295 time(s)
Lithuania


(IMG:https://metalarea.org/images/audiocovers/2019_Dec/acov_tid331199_thumb.jpg)

*Artist: Darkest End
*Album: Winter's Blood [ep]
*Year: 2019
*Genre: Melodic Death Metal
*Country: United States (IMG:https://metalarea.org/forum/style_images/flags/United%20States.png)
*Format: mp3@CBR320kbps
*Size: 58MB

Tracklist:
01. Lost _ Astray
02. Raven Cry
03. Cybele
04. Live Again
05. Downfall
******************************
Total playing time: 25:02


(IMG:https://metalarea.org/images/youtube.png)

Technical info
(IMG:https://metalarea.org/images/spectrogram/2019_Dec/b61794a84077dfd63f1846d5757c521c.png)
Input File: 02. Raven Cry.mp3
Channels : 2
Sample Rate : 44100
Precision : 16-bit
Duration : 00:05:19.76 = 14101372 samples = 23981.9 CDDA sectors
File Size : 12.9M
Bit Rate : 322k
Sample Encoding: MPEG audio (layer I, II or III)
Comments :
Title=Raven Cry
Artist=Darkest End
Album=Winter's Blood
Tracknumber=2/5
Year=2019
Genre=17
Discnumber=1/1



Register


Go to the top of the page
  Insert nick Quick quote
+Quote Post
 
Start new topic
Replies (1 - 5)
post Dec 6 2019, 03:45:31
Post #2

Два Литра
**
Group: Завсегдатай
Posts: 143
Releases: 0
On Forums: 12 years 2 months
Thanks: 15 time(s)
Russian Federation


https://www.youtube.com/watch?v=QYnpabB9r8A
Go to the top of the page
  Insert nick Quick quote
+Quote Post
post Dec 6 2019, 20:15:52
Post #3

Правь статус, ####!111
**************
Group: Металариец
Posts: 20,718
Releases: 14141
From: Г.Харьков
On Forums: 7 years 9 months
Thanks: 249960 time(s)
Unknown


группа то не из штатов а из Греции.
Go to the top of the page
  Insert nick Quick quote
+Quote Post
post Dec 7 2019, 21:24:25
Post #4

MDM-Thrash Metal
**************
Group: Металариец
Posts: 9,273
Releases: 781
From: Одесса
On Forums: 12 years 6 months
Thanks: 21054 time(s)
Ukraine


Go to the top of the page
  Insert nick Quick quote
+Quote Post
post Dec 7 2019, 21:33:08
Post #5

Это просто место… где все подошло к концу.
**************
Group: Металариец
Posts: 5,727
Releases: 0
From: Страны Мамонтов
On Forums: 13 years 1 week
Thanks: 2095 time(s)
Antarctica


Очень даже годно. Raven Cry - вообще (IMG:style_emoticons/default/pray.gif)
Go to the top of the page
  Insert nick Quick quote
+Quote Post
post Jan 14 2020, 17:33:32
Post #6

Три Литра
***
Group: Завсегдатай
Posts: 236
Releases: 4
From: СПб
On Forums: 11 years 8 months
Thanks: 61 time(s)
Russian Federation


Добротная EP-шка. Забрал с благодарностью.
Go to the top of the page
  Insert nick Quick quote
+Quote Post

Reply to this topicStart new topic
1 User(s) are reading this topic (1 Guests and 0 Anonymous Users)
0 Members:

 



- Lo-Fi Version Support form
Copyrights and abuse reports form
Time is now: 28th February 2020 - 09:53:57