Welcome Guest ( Log In | Register )

> И неформату есть предел.

Рэп/хип-хоп/шансон/поп удаляются. Для них есть свои порталы.

> Iguana - Translational Symmetry (2019), Psychedelic Rock
post Dec 5 2019, 19:05:10
Post #1

Правь статус, ####!111
**************
Group: Металариец
Posts: 44,888
Releases: 694
On Forums: 10 years 7 months
Thanks: 36383 time(s)
Russian Federation


(IMG:http://metalarea.org/images/audiocovers/2019_Dec/acov_tid331210_thumb.jpg)

*Artist: Iguana
*Album: Translational Symmetry
*Year: 2019
*Genre: Psychedelic Rock
*Country: Germany (IMG:http://metalarea.org/forum/style_images/flags/Germany.png)
*Format: mp3@CBR320kbps
*Size: 116MB

Tracklist:
1. Time Translation Symmetry 04:32
2. Below The Hinderlands 04:29
3. Leaving Crete 03:44
4.nThe Fish Code 03:15
5. Vessel Meerkatze 04:38
6. Rites Of Passages 08:42
7. Hear The Kid Out 03:37
8. Repeating Odd Dream 05:01
9. Spinning Top 06:05
******************************
Total playing time: 44:03



Technical info
(IMG:http://metalarea.org/images/spectrogram/2019_Dec/8ef4a231ee385e08a70ac135c9406925.png)
Input File: 01 Time Translation Symmetry.mp3
Channels : 2
Sample Rate : 44100
Precision : 16-bit
Duration : 00:04:32.13 = 12001021 samples = 20409.9 CDDA sectors
File Size : 12.7M
Bit Rate : 373k
Sample Encoding: MPEG audio (layer I, II or III)
Comments :
Title=Time Translation Symmetry
Artist=Iguana
Album=Translational Symmetry
Tracknumber=01
Year=2019
Genre=Psychedelic Rock



Register


Go to the top of the page
  Insert nick Quick quote
+Quote Post
 
Start new topic
Replies (1 - 1)
post Dec 5 2019, 20:10:59
Post #2

Правь статус, ####!111
**************
Group: Металариец
Posts: 44,888
Releases: 694
On Forums: 10 years 7 months
Thanks: 36383 time(s)
Russian Federation


Очень очень очень очень очень очень замечательный альбом.

Давно такого наикрутейшего психоделик рока не слышал.

И это при том, что ничего нового ребята не сварганили, но подали старые ингредиенты так, что просто оооооо (IMG:style_emoticons/default/pray.gif)
Go to the top of the page
  Insert nick Quick quote
+Quote Post

Reply to this topicStart new topic
1 User(s) are reading this topic (1 Guests and 0 Anonymous Users)
0 Members:

 



- Lo-Fi Version Support form
Copyrights and abuse reports form
Time is now: 22nd January 2020 - 00:36:33