Welcome Guest ( Log In | Register )

> Forum rules / Правила раздела

Here go releases which can't go to New releases forums due lack of information, stolen links or incorrect data and just founded in other sites links with minimum info. Reissue of this releases through Add release form with added/corrected data, info and own links highly welcomed.

Сюда уходят релизы, не пропущенные в основные релизные форумы по причинам отсутствия, недостаточности или неверности/некорректности сопровождающей информации, содержащие ссылки, указывающие на файлы, залитые не автором темы, а так же просто найденные где-то ссылки с минимумом информации. Переоформление тем отсюда через форму Добавления релиза с перезаливкой ссылок крайне приветствуется.

> Ultima Thule - Charlataner (2019), Viking Rock (D15)
post Dec 6 2019, 06:35:21
Post #1

Литр
*
Group: Подсевший
Posts: 86
Releases: 32
From: DONBASS
On Forums: 8 years 2 months
Thanks: 509 time(s)
Ukraine


(IMG:https://metalarea.org/images/audiocovers/2019_Dec/acov_tid331223_thumb.jpg)

*Artist: Ultima Thule
*Album: Charlataner
*Year: 2019
*Genre: Viking Rock
*Country: Sweden (IMG:https://metalarea.org/forum/style_images/flags/Sweden.png)
*Format: mp3@CBR320kbps
*Size: 97MB

Tracklist:
01. Sveket (04:20)
02. Riddarholmskyrkan (05:10)
03. Kronan, Äpplet Och Svärdet (03:52)
04. Dalvisan (03:22)
05. Jämtlandsången (02:24)
06. Nordens Stjärna (04:13)
07. I Din Syn Så Darrar Jag (03:39)
08. Fädernes Kyrka (04:31)
09. En Vän För Sverige (02:51)
10. Du Gamla Du Fria (04:18)
11. Land Du Välsignade (04:08)
12. Vikingabalk (Live 2019) (04:00)
******************************
Total playing time: 46:55



Technical info
(IMG:https://metalarea.org/images/spectrogram/2019_Dec/8307166146d2137ad2146a2faf35808d.png)
Input File: 06. Ultima Thule - Nordens Stjarna.mp3
Channels : 2
Sample Rate : 44100
Precision : 16-bit
Duration : 00:04:12.51 = 11135515 samples = 18938 CDDA sectors
File Size : 10.3M
Bit Rate : 325k
Sample Encoding: MPEG audio (layer I, II or III)
Comments :
Title=Nordens Stjärna
Artist=Ultima Thule
Album=Charlataner
Tracknumber=06/12
Year=2019
Genre=Other



Register


Go to the top of the page
  Insert nick Quick quote
+Quote Post
 
Start new topic
Replies (1 - 3)
post Dec 6 2019, 07:18:27
Post #2
BAN
Banned till
Jul 17 2020, 21:47:37



Вот это хороший жанр, люблю викинг рок.
Go to the top of the page
  Insert nick Quick quote
+Quote Post
post Dec 14 2019, 18:19:59
Post #3

Правь статус, ####!111
**************
Group: Металариец
Posts: 3,085
Releases: 0
From: Москва
On Forums: 12 years 3 months
Thanks: 481 time(s)
Russian Federation


Обе ссылки битые .
Go to the top of the page
  Insert nick Quick quote
+Quote Post
post Dec 21 2019, 05:17:41
Post #4

Литр
*
Group: Подсевший
Posts: 86
Releases: 32
From: DONBASS
On Forums: 8 years 2 months
Thanks: 509 time(s)
Ukraine


ЦИТАТА(DMIYUR @ Dec 14 2019, 19:19:59) *
Обе ссылки битые .

Скачал проверил всё работает
Go to the top of the page
  Insert nick Quick quote
+Quote Post

Reply to this topicStart new topic
1 User(s) are reading this topic (1 Guests and 0 Anonymous Users)
0 Members:

 



- Lo-Fi Version Support form
Copyrights and abuse reports form
Time is now: 3rd June 2020 - 19:52:39