Welcome Guest ( Log In | Register )

> Cool Head Klan - Tűzben Edzett (2019), Folk/Heavy Metal
post Dec 6 2019, 10:11:36
Post #1

Время Мары
**************
Group: Металариец
Posts: 3,106
Releases: 410
From: Харьков
On Forums: 10 years 8 months
Thanks: 8124 time(s)
Ukraine


(IMG:http://metalarea.org/images/audiocovers/2019_Dec/acov_tid331225_thumb.jpg)

*Artist: Cool Head Klan
*Album: Tűzben Edzett
*Year: 2019
*Genre: Folk/Heavy Metal
*Country: Hungary (IMG:http://metalarea.org/forum/style_images/flags/Hungary.png)
*Format: mp3@CBR320kbps
*Size: 109MB

Tracklist:
01. Képeslap 86-ból
02. Tűzben edzett
03. Emlékkép
04. Nem bánom, hogy parasztnak születtem
05. Menny és pokol
06. Arany, ezüst és bronz
07. Corvina Burana
08. A kősziklára állj
09. Nyugtalan vér
10. Féktelen blues
11. Szép hazám útjain
******************************
Total playing time: 45:29

Technical info
(IMG:http://metalarea.org/images/spectrogram/2019_Dec/5a5f5e9d4c8b3ad8629f562c22b364d8.png)
Input File: 07. Corvina Burana.mp3
Channels : 2
Sample Rate : 44100
Precision : 16-bit
Duration : 00:04:28.43 = 11837587 samples = 20132 CDDA sectors
File Size : 11.2M
Bit Rate : 334k
Sample Encoding: MPEG audio (layer I, II or III)
Comments :
Title=Corvina Burana
Artist=Cool Head Klan
Album=Tűzben edzett
Tracknumber=7/11
Year=2019



Register


Go to the top of the page
  Insert nick Quick quote
+Quote Post
 
Start new topic
Replies (1 - 1)
post Dec 15 2019, 20:02:50
Post #2

Перевозчик
**************
Group: Металариец
Posts: 3,114
Releases: 0
On Forums: 11 years 7 months
Thanks: 684 time(s)
Russian Federation


Go to the top of the page
  Insert nick Quick quote
+Quote Post

Reply to this topicStart new topic
2 User(s) are reading this topic (2 Guests and 0 Anonymous Users)
0 Members:

 



- Lo-Fi Version Support form
Copyrights and abuse reports form
Time is now: 17th February 2020 - 07:34:26