Welcome Guest ( Log In | Register )

 
Reply to this topicStart new topic
> State Of Deceit - Retribution [ep] (2019), Groove/Thrash Metal
post Dec 6 2019, 15:37:41
Post #1

Serial Uploader
Group Icon
Group: V.I.P
Posts: 37,011
Releases: 35193
From: Lithuania
On Forums: 11 years 8 months
Thanks: 414555 time(s)
Lithuania


(IMG:https://metalarea.org/images/audiocovers/2019_Dec/acov_tid331226_thumb.jpg)

*Artist: State Of Deceit
*Album: Retribution [ep]
*Year: 2019
*Genre: Groove/Thrash Metal
*Country: United States (IMG:https://metalarea.org/forum/style_images/flags/United%20States.png)
*Format: mp3@CBR320kbps
*Size: 50MB

Tracklist:
01. Tattered Life 03:56
02. Vengeance 03:44
03. When Words Fail 03:51
04. No Solace 04:08
05. The Black 03:54
06. Vipers 04:11
******************************
Total playing time: 23:44


(IMG:https://metalarea.org/images/youtube.png)

Technical info
(IMG:https://metalarea.org/images/spectrogram/2019_Dec/0d95dae3851bfb7699bd2e8538b26982.png)
Input File: 02. Vengeance.mp3
Channels : 2
Sample Rate : 44100
Precision : 16-bit
Duration : 00:03:44.20 = 9887132 samples = 16814.9 CDDA sectors
File Size : 9.07M
Bit Rate : 324k
Sample Encoding: MPEG audio (layer I, II or III)
Comments :
Title=Vengeance
Artist=State of Deceit
Album=Retribution (EP)
Tracknumber=2
Year=2019
Genre=9



Register


Go to the top of the page
  Insert nick Quick quote
+Quote Post

Reply to this topicStart new topic
1 User(s) are reading this topic (1 Guests and 0 Anonymous Users)
0 Members:

 



- Lo-Fi Version Support form
Copyrights and abuse reports form
Time is now: 21st February 2020 - 03:31:48