Welcome Guest ( Log In | Register )

> 

Здесь релизы с живыми прямыми ссылками на lossless

> Ewiges Fristen - Freigeist (2019), Black Metal
post Dec 7 2019, 14:23:02
Post #1

Правь статус, ####!111
**************
Group: Металариец
Posts: 20,351
Releases: 13874
From: Г.Харьков
On Forums: 7 years 8 months
Thanks: 243408 time(s)
Unknown


(IMG:http://metalarea.org/images/audiocovers/2019_Dec/acov_tid331251_thumb.jpg)

*Artist: Ewiges Fristen
*Album: Freigeist
*Year: 2019
*Genre: Black Metal
*Country: Germany (IMG:http://metalarea.org/forum/style_images/flags/Germany.png)
*Format: mp3@CBR320kbps
*Size: 116MB

Tracklist:
1. Die Brut 01:36
2. Privileg - Freigeist 08:48
3. Liebt mich 07:40
4. Porzellan 06:36
5. Kunst auf ewig 07:43
6. Alles scheint verstummt 06:43
7. Wartend in Einsamkeit 08:32
8. Ausblick 03:19
******************************
Total playing time: 50:57




Extended info
Chris Bass, Vocals (backing)
See also: Fading Aeon
Manuel Guitars, Vocals (backing)
See also: Syntension, ex-Infected Authoritah
J.v.F. Everything (2002-2008), Vocals (lead), Guitars (2014-present)
René Drums (2014-present)
See also: ex-The Crap, ex-Agrypnie, ex-Angelus Mortis, ex-Rising Hate



Technical info
(IMG:http://metalarea.org/images/spectrogram/2019_Dec/4f38ee3fd31ee5a51129f60494756887.png)
Input File: 05 - Kunst auf ewig.mp3
Channels : 2
Sample Rate : 44100
Precision : 16-bit
Duration : 00:07:43.15 = 20425047 samples = 34736.5 CDDA sectors
File Size : 18.6M
Bit Rate : 321k
Sample Encoding: MPEG audio (layer I, II or III)
Comments :
Title=Kunst auf ewig
Artist=Ewiges Fristen
Album=Freigeist
Tracknumber=5
Year=2019
Genre=Rock/Metal
Discnumber=1



Register


Go to the top of the page
  Insert nick Quick quote
+Quote Post
 
Start new topic
Replies (1 - 2)
post Dec 8 2019, 12:29:39
Post #2

Литр
*
Group: Подсевший
Posts: 55
Releases: 0
From: г. Нальчик
On Forums: 7 years 1 month
Thanks: 110 time(s)
Russian Federation


FLAC (Tracks) 356 MB
Register


Thanks:
(1) Olethros,
Go to the top of the page
  Insert nick Quick quote
+Quote Post
post Dec 8 2019, 15:44:26
Post #3

De Mysteriis Dom Sathanas
**************
Group: Металариец
Posts: 3,788
Releases: 63
From: Doom
On Forums: 11 years 6 months
Thanks: 3213 time(s)
Russian Federation


За исключением ударника, да и то не особливо в блэке, все остальные не играли в этом стиле - чисто решили и здесь отметиться - результат полное г*(
Go to the top of the page
  Insert nick Quick quote
+Quote Post

Reply to this topicStart new topic
1 User(s) are reading this topic (1 Guests and 0 Anonymous Users)
0 Members:

 



- Lo-Fi Version Support form
Copyrights and abuse reports form
Time is now: 29th January 2020 - 01:01:43