Welcome Guest ( Log In | Register )

> Forum rules / Правила раздела

Here go releases which can't go to New releases forums due lack of information, stolen links or incorrect data and just founded in other sites links with minimum info. Reissue of this releases through Add release form with added/corrected data, info and own links highly welcomed.

Сюда уходят релизы, не пропущенные в основные релизные форумы по причинам отсутствия, недостаточности или неверности/некорректности сопровождающей информации, содержащие ссылки, указывающие на файлы, залитые не автором темы, а так же просто найденные где-то ссылки с минимумом информации. Переоформление тем отсюда через форму Добавления релиза с перезаливкой ссылок крайне приветствуется.

 
Reply to this topicStart new topic
> Addaura - ...And The Lamps Expire [ep] (2015), Atmospheric Black Metal
post Dec 7 2019, 19:19:02
Post #1

Old Skull Thrash & Death
*****
Group: Металариец
Posts: 492
Releases: 272
From: Oberschlesien
On Forums: 8 years 10 months
Thanks: 2229 time(s)
Poland


(IMG:http://metalarea.org/images/audiocovers/2019_Dec/acov_tid331270_thumb.jpg)

*Artist: Addaura
*Album: ...And The Lamps Expire [ep]
*Year: 2015
*Genre: Atmospheric Black Metal
*Country: United States (IMG:http://metalarea.org/forum/style_images/flags/United%20States.png)
*Format: mp3@VBR260kbps
*Size: 41MB

Tracklist:
1. Amid the Tumult and Clamor (I Look for the Light Through the Pouring Rain) 10:28
2. Chambering Things Lost 01:37 instrumental
3. The Sun Shines Today Also (On the Oaks of That Bird Hill) 09:20
4. Running Through Strands of Blue 04:23
******************************
Total playing time: 25:48

Technical info
(IMG:http://metalarea.org/images/spectrogram/2019_Dec/3ac83d50063a2965223440bbc9b4cfd9.png)
Input File: 02 chambering things lost .mp3
Channels : 2
Sample Rate : 44100
Precision : 16-bit
Duration : 00:01:37.15 = 4284271 samples = 7286.18 CDDA sectors
File Size : 3.06M
Bit Rate : 252k
Sample Encoding: MPEG audio (layer I, II or III)
Comments :
Title=chambering things lost
Artist=Addaura
Album=And The Lamps Expire
Tracknumber=2/3
Year=2015
Genre=Black Metal



Register


Go to the top of the page
  Insert nick Quick quote
+Quote Post

Reply to this topicStart new topic
2 User(s) are reading this topic (2 Guests and 0 Anonymous Users)
0 Members:

 



- Lo-Fi Version Support form
Copyrights and abuse reports form
Time is now: 23rd January 2020 - 18:02:18