Welcome Guest ( Log In | Register )

> Ends With A Bullet - Human (2019), Melodic Metalcore/Modern Metal
post Dec 8 2019, 20:49:18
Post #1

MDM-Thrash Metal
**************
Group: Металариец
Posts: 9,271
Releases: 781
From: Одесса
On Forums: 12 years 6 months
Thanks: 21032 time(s)
Ukraine


(IMG:http://metalarea.org/images/audiocovers/2019_Dec/acov_tid331305.jpg)

*Artist: Ends With A Bullet
*Album: Human
*Year: 2019
*Genre: Melodic Metalcore/Modern Metal
*Country: Sweden (IMG:http://metalarea.org/forum/style_images/flags/Sweden.png)
*Format: mp3@CBR320kbps
*Size: 93MB

Tracklist:
01. Phoenix Rising 04:13
02. Human 02:54
03. Civil War 04:01
04. Struck by Lightning 03:14
05. Dancing with the Devil 03:31
06. Boot Camp 03:47
07. Obey Your Master 03:44
08. Fade Away 03:10
09. Medusa 03:42
10. Spit You Out 03:32
11. Sea of Blood 03:07
******************************
Total playing time: 38:55

(IMG:http://metalarea.org/images/youtube.png)
(IMG:http://metalarea.org/images/youtube.png)


Technical info
(IMG:http://metalarea.org/images/spectrogram/2019_Dec/8a263ee1f6165a42c8a4955cbb21f532.png)
Input File: 02. Human.mp3
Channels : 2
Sample Rate : 44100
Precision : 16-bit
Duration : 00:02:54.07 = 7676311 samples = 13055 CDDA sectors
File Size : 7.17M
Bit Rate : 330k
Sample Encoding: MPEG audio (layer I, II or III)
Comments :
Title=Human
Artist=Ends With A Bullet
Album=Human
Tracknumber=02
Year=2019
Genre=Metalcore, Alternative Metal
Discnumber=1



Register


Go to the top of the page
  Insert nick Quick quote
+Quote Post
 
Start new topic
Replies (1 - 1)
post Dec 10 2019, 15:04:47
Post #2

Ъ
**************
Group: Металариец
Posts: 9,925
Releases: 9
On Forums: 11 years 1 month
Thanks: 1967 time(s)
Sweden


Третьесорт.


Thanks:
(1) kiol1,
Go to the top of the page
  Insert nick Quick quote
+Quote Post

Reply to this topicStart new topic
2 User(s) are reading this topic (2 Guests and 0 Anonymous Users)
0 Members:

 



- Lo-Fi Version Support form
Copyrights and abuse reports form
Time is now: 25th February 2020 - 09:25:45