Welcome Guest ( Log In | Register )

> Dirty Grave - Sin After Death (2019), Doom Metal
post Dec 10 2019, 06:36:46
Post #1

Правь статус, ####!111
**************
Group: Металариец
Posts: 21,167
Releases: 14450
From: Г.Харьков
On Forums: 7 years 10 months
Thanks: 257529 time(s)
Unknown


(IMG:http://metalarea.org/images/audiocovers/2019_Dec/acov_tid331345_thumb.jpg)

*Artist: Dirty Grave
*Album: Sin After Death
*Year: 2019
*Genre: Doom Metal
*Country: Brazil (IMG:http://metalarea.org/forum/style_images/flags/Brazil.png)
*Format: mp3@CBR320kbps
*Size: 120MB

Tracklist:
1. In This Night 08:07
2. Slaughter (Human Race Is Dead) 05:26
3. Turn Off All My Fears 06:33
4. Lord of Pain 03:52
5. Satan's Wings II (I Saw the Devil) 05:00
6. Disposable Toys 04:14
7. Slow Journey 06:19
8. When Lucifer Touches Your Soul 09:39
******************************
Total playing time: 49:10




Extended info
Henrique Lima Drums
Mark Rainbow Bass, Vocals
Pedro Barros Guitars
Victor Berg Guitars


Technical info
(IMG:http://metalarea.org/images/spectrogram/2019_Dec/dc0179c9d12666e6c9d5d903d073ee22.png)
Input File: 03 - Turn Off All My Fears.mp3
Channels : 2
Sample Rate : 44100
Precision : 16-bit
Duration : 00:06:33.53 = 17354673 samples = 29514.8 CDDA sectors
File Size : 16.9M
Bit Rate : 344k
Sample Encoding: MPEG audio (layer I, II or III)
Comments :
Title=Turn Off All My Fears
Artist=Dirty Grave
Album=Sin After Death
Tracknumber=3
Year=2019



Register


Go to the top of the page
  Insert nick Quick quote
+Quote Post
 
Start new topic
Replies (1 - 6)
post Dec 11 2019, 17:08:51
Post #2

Шесть Литров
******
Group: Металариец
Posts: 541
Releases: 1
From: АР Крым, Симферополь
On Forums: 11 years 11 months
Thanks: 240 time(s)
Russian Federation


Добротный альбом, винтаж стайл, Саббаты + Пентаграмм, 70-ые форэва!! (IMG:style_emoticons/default/metaler.gif)
Дебютник у них помню был как то не особый, а вот этот второй прям УХ, порадовали бразильцы, однозначно порадовали!! (IMG:style_emoticons/default/metaler.gif)


Thanks:
Go to the top of the page
  Insert nick Quick quote
+Quote Post
post Dec 14 2019, 11:25:27
Post #3

Семь Литров
*******
Group: Металариец
Posts: 738
Releases: 0
From: South Of Heaven
On Forums: 12 years 7 months
Thanks: 341 time(s)
Ukraine


Таки да,соглашусь с предыдущим оратором- альбом шикарен ! (IMG:style_emoticons/default/pray.gif)
Релизёру вери сенкс!! (IMG:style_emoticons/default/9.gif) (IMG:style_emoticons/default/9.gif)


Thanks:
Go to the top of the page
  Insert nick Quick quote
+Quote Post
post Dec 14 2019, 12:00:44
Post #4

Правь статус, ####!111
**************
Group: Металариец
Posts: 45,596
Releases: 703
On Forums: 10 years 9 months
Thanks: 37525 time(s)
Russian Federation


Приятно, но лучше Саббат 100500й раз переслушать.
Go to the top of the page
  Insert nick Quick quote
+Quote Post
post Dec 14 2019, 12:05:24
Post #5

Семь Литров
*******
Group: Металариец
Posts: 738
Releases: 0
From: South Of Heaven
On Forums: 12 years 7 months
Thanks: 341 time(s)
Ukraine


ЦИТАТА(vosmidesijatye @ 14th December 2019 - 13:00:44) *
Приятно, но лучше Саббат 100500й раз переслушать.

Таки не соглашусь. Саббату-саббатово , а молодые таланты тоже достойны внимания . (IMG:style_emoticons/default/genius.gif)
P.S. - и ещё бонус : в тегах прописаны тексты песен , что может быть интересно знающим/изучающим инглиш ... (IMG:style_emoticons/default/smile1.gif)
Go to the top of the page
  Insert nick Quick quote
+Quote Post
post Dec 15 2019, 09:53:25
Post #6

Семь Литров
*******
Group: Металариец
Posts: 738
Releases: 0
From: South Of Heaven
On Forums: 12 years 7 months
Thanks: 341 time(s)
Ukraine


ЦИТАТА(Leshiy666 @ 11th December 2019 - 18:08:51) *
Дебютник у них помню был как то не особый,

А за какой дебютник речь ? Альбом 17-го года, "Evil Desire ", очешуителен !! (IMG:style_emoticons/default/pray.gif) (IMG:style_emoticons/default/metaler.gif)
Go to the top of the page
  Insert nick Quick quote
+Quote Post
post Dec 26 2019, 10:47:54
Post #7

Шесть Литров
******
Group: Металариец
Posts: 602
Releases: 5
From: Ивантеевка, Московская область
On Forums: 12 years 3 months
Thanks: 205 time(s)
Russian Federation


Присоединяюсь. Просто офигенно! (IMG:style_emoticons/default/20.gif)
Go to the top of the page
  Insert nick Quick quote
+Quote Post

Reply to this topicStart new topic
2 User(s) are reading this topic (2 Guests and 0 Anonymous Users)
0 Members:

 



- Lo-Fi Version Support form
Copyrights and abuse reports form
Time is now: 29th March 2020 - 01:24:23