Welcome Guest ( Log In | Register )

> One Less Life - Vigil (2019), Deathcore
post Dec 10 2019, 10:29:38
Post #1

Время Мары
**************
Group: Металариец
Posts: 3,106
Releases: 410
From: Харьков
On Forums: 10 years 8 months
Thanks: 8124 time(s)
Ukraine


(IMG:http://metalarea.org/images/audiocovers/2019_Dec/acov_tid331352_thumb.jpg)

*Artist: One Less Life
*Album: Vigil
*Year: 2019
*Genre: Deathcore
*Country: United States (IMG:http://metalarea.org/forum/style_images/flags/United%20States.png)
*Format: mp3@CBR320kbps
*Size: 81MB

Tracklist:
1.Gatekeeper
2.AK-5011
3.The Blood Pact (feat. Ringo Waterman)
4.Heaven's Gate
5.Snake (feat. Russell Pompa)
6.Vigil
7.Torment
8.Lily Of The Valley
9.Decay
10.Deathbed II
******************************
Total playing time: 34:08

Technical info
(IMG:http://metalarea.org/images/spectrogram/2019_Dec/275fe7d3a845840f68b479a743dec567.png)
Input File: 04 - Heaven\'s Gate.mp3
Channels : 2
Sample Rate : 44100
Precision : 16-bit
Duration : 00:03:46.37 = 9982741 samples = 16977.5 CDDA sectors
File Size : 9.30M
Bit Rate : 329k
Sample Encoding: MPEG audio (layer I, II or III)
Comments :
Title=Heaven's Gate
Artist=One Less Life
Album=Vigil
Tracknumber=4
Year=2019
Genre=Metal
Discnumber=1



Register


Go to the top of the page
  Insert nick Quick quote
+Quote Post
 
Start new topic
Replies (1 - 1)
post Dec 11 2019, 09:55:00
Post #2

тебе 29, а ты все реверсами балуешься
***********
Group: Металариец
Posts: 1,845
Releases: 4
On Forums: 11 years 6 months
Thanks: 581 time(s)
Russian Federation


Я подумал, ну а вдруг. Вот пишут - деткор - но мб что-то из ряда вон, ну хоть с какой-то изюминкой.
Нифига - типичнейший представитель жанра, ток для фэнов.



Thanks:
Go to the top of the page
  Insert nick Quick quote
+Quote Post

Reply to this topicStart new topic
2 User(s) are reading this topic (2 Guests and 0 Anonymous Users)
0 Members:

 



- Lo-Fi Version Support form
Copyrights and abuse reports form
Time is now: 17th February 2020 - 08:16:46