Welcome Guest ( Log In | Register )

> Cockrock Sadistic Petus Pennytration - Butchered (2019), Death Metal
post Dec 11 2019, 16:57:02
Post #1

Правь статус, ####!111
**************
Group: Металариец
Posts: 21,855
Releases: 15063
From: Г.Харьков
On Forums: 8 years 2 weeks
Thanks: 272943 time(s)
Unknown


(IMG:http://metalarea.org/images/audiocovers/2019_Dec/acov_tid331394_thumb.jpg)

*Artist: Cockrock Sadistic Petus Pennytration
*Album: Butchered
*Year: 2019
*Genre: Death Metal
*Country: Germany (IMG:http://metalarea.org/forum/style_images/flags/Germany.png)
*Format: mp3@CBR320kbps
*Size: 89MB

Tracklist:
1. Intro 00:36
2. Living Nightmare 03:22
3. Infernal Torment 02:59
4. Hell Throne 03:45
5. Bring the Shit Down 03:07
6. Unleash the Darkness 03:24
7. Butchered and Bleeding 03:53
8. Human Barbeque 04:30
9. Rise of Damnation 03:17
10. Deep Inside 03:34
11. Flesh Eater 08:52
******************************
Total playing time: 41:19




Extended info
CockRock drums
Sadistic Petus guitar, vocals
Pennytration vocals


Technical info
(IMG:http://metalarea.org/images/spectrogram/2019_Dec/65b9b4a8a9cbb278404fb9850e83fc2f.png)
Input File: 04 - Hell Throne.mp3
Channels : 2
Sample Rate : 44100
Precision : 16-bit
Duration : 00:03:45.32 = 9936656 samples = 16899.1 CDDA sectors
File Size : 9.16M
Bit Rate : 325k
Sample Encoding: MPEG audio (layer I, II or III)
Comments :
Title=Hell Throne
Artist=Cockrock Sadistic Petus Pennytration
Album=Butchered
Tracknumber=4
Year=2019-09-27
Discnumber=1



Register


Go to the top of the page
  Insert nick Quick quote
+Quote Post
 
Start new topic
Replies (1 - 4)
post Dec 11 2019, 23:53:44
Post #2

Crush The Enemies
**************
Group: Металариец
Posts: 4,287
Releases: 0
From: Moscow
On Forums: 10 years 8 months
Thanks: 2620 time(s)
Russian Federation



Сдвоенные вокалы обрушивают всю свою МОЩЬ и ЯРОСТЬ в уши истинных МЕТАЛХЭДОВ не давая продыха на всём протяжении огненной ПРОФАНАЦИИ! (IMG:style_emoticons/default/true_black.gif)

P.S Ядрённый DEATH METAL тевтонского разлива!!! (IMG:style_emoticons/default/metaler.gif) (IMG:style_emoticons/default/metaler.gif) (IMG:style_emoticons/default/metaler.gif)


Go to the top of the page
  Insert nick Quick quote
+Quote Post
post Dec 12 2019, 14:49:12
Post #3

Шесть Литров
******
Group: Металариец
Posts: 605
Releases: 5
From: Ивантеевка, Московская область
On Forums: 12 years 5 months
Thanks: 215 time(s)
Russian Federation


defamer666, Спасибо, убедили. Иначе даже качать бы не стал (IMG:style_emoticons/default/smile1.gif)


Thanks:
Go to the top of the page
  Insert nick Quick quote
+Quote Post
post Dec 13 2019, 06:02:55
Post #4

i listen to black metal
**************
Group: Металариец
Posts: 2,577
Releases: 132
From: Москва-Лианозово
On Forums: 13 years 5 months
Thanks: 2142 time(s)
Russian Federation


ЦИТАТА(Ice Gnoll @ Dec 12 2019, 16:49:12) *
defamer666, Спасибо, убедили. Иначе даже качать бы не стал (IMG:style_emoticons/default/smile1.gif)

лучше бы не качал- срань господня
Go to the top of the page
  Insert nick Quick quote
+Quote Post
post Dec 13 2019, 06:33:07
Post #5

Сволочь обыкновенная
**************
Group: Металариец
Posts: 2,631
Releases: 146
From: Брест
On Forums: 12 years 1 month
Thanks: 3454 time(s)
Belarus


ЦИТАТА(Ice Gnoll @ 12th December 2019 - 16:49:12) *
defamer666, Спасибо, убедили. Иначе даже качать бы не стал

Аналогично!
defamer666,
Спасибо, понравилось! Но думаю что тэг /grind тут не помешает)


Thanks:
Go to the top of the page
  Insert nick Quick quote
+Quote Post

Reply to this topicStart new topic
2 User(s) are reading this topic (2 Guests and 0 Anonymous Users)
0 Members:

 



- Lo-Fi Version Support form
Copyrights and abuse reports form
Time is now: 26th May 2020 - 13:14:17