Welcome Guest ( Log In | Register )

> Blasphematory - Depths Of The Obscurity (2019), Death Metal
post Dec 11 2019, 20:29:37
Post #1

Правь статус, ####!111
**************
Group: Металариец
Posts: 20,701
Releases: 14130
From: Г.Харьков
On Forums: 7 years 9 months
Thanks: 249792 time(s)
Unknown


(IMG:http://metalarea.org/images/audiocovers/2019_Dec/acov_tid331404_thumb.jpg)

*Artist: Blasphematory
*Album: Depths Of The Obscurity
*Year: 2019
*Genre: Death Metal
*Country: United States (IMG:http://metalarea.org/forum/style_images/flags/United%20States.png)
*Format: mp3@CBR320kbps
*Size: 82MB

Tracklist:
1. Intro 01:15
2. Martyr's Tears 03:33
3. Remains of the Despised 03:35
4. Furthest from Salvation 03:55
5. Depths of the Obscurity 05:05
6. The Old Book 04:03
7. Toward Rotten Death 04:40
8. Sepulchres Below 04:06
9. Pulled from the Beyond 05:25
******************************
Total playing time: 35:37



Extended info
Joe Aversario Bass, Guitars, Vocals
See also: Abazagorath, Altar of Gore, Burial Stone, Damnation Lust, Death Fortress, DSS, Eternal Fuzz, Jaws of Hades, Malefaction, Massive Retaliation, Senobyte, Siege Column, ex-Dethroned Emperor, ex-Misanthropy Legion, ex-Angelcide, ex-Northern Myst, ex-Necrofog, ex-Softdov, ex-Stressed Out
Chris Warhead Drums
See also: Abazagorath, Altar of Gore (live), ex-Warhead, ex-Bitter Peace, ex-Immolith, ex-Discordance Axis


Technical info
(IMG:http://metalarea.org/images/spectrogram/2019_Dec/5a2da33dd1032a0c7fbd8ba53d8417ec.png)
Input File: 05. Depths of the Obscurity.mp3
Channels : 2
Sample Rate : 44100
Precision : 16-bit
Duration : 00:05:05.18 = 13458526 samples = 22888.6 CDDA sectors
File Size : 12.3M
Bit Rate : 323k
Sample Encoding: MPEG audio (layer I, II or III)
Comments :
Title=Depths of the Obscurity
Artist=Blasphematory
Album=Depths of the Obscurity
Tracknumber=5
Year=2019
Genre=Death



Register


Go to the top of the page
  Insert nick Quick quote
+Quote Post
 
Start new topic
Replies (1 - 3)
post Dec 11 2019, 22:38:28
Post #2

Шесть Литров
******
Group: Металариец
Posts: 539
Releases: 1
From: АР Крым, Симферополь
On Forums: 11 years 10 months
Thanks: 239 time(s)
Russian Federation


Добротный крепкий олдскул в духе 90-ых (IMG:style_emoticons/default/m0114.gif)
Местами напомнило ранний штатовский Фюнебрарум, ранний финский Риппикоулу и ранний шведский Мундарк.


Go to the top of the page
  Insert nick Quick quote
+Quote Post
post Dec 11 2019, 22:49:30
Post #3

Absorbence
***********
Group: Металариец
Posts: 1,705
Releases: 215
From: Vastland Abyss of Cthulhu
On Forums: 13 years 3 months
Thanks: 3750 time(s)
Canada


does anyone know whether Blasphemathron is available to take for my own band. I'm afraid to stuck in a dispute with other people ... :-|

P/S/ music is good though
Go to the top of the page
  Insert nick Quick quote
+Quote Post
post Dec 12 2019, 08:11:11
Post #4

hearer & reader
**************
Group: Металариец
Posts: 8,392
Releases: 118
From: Moscow
On Forums: 12 years 5 months
Thanks: 8063 time(s)
Russian Federation


Сборник, где они поучаствовали (non-album track) - - NYP


Thanks:
Go to the top of the page
  Insert nick Quick quote
+Quote Post

Reply to this topicStart new topic
2 User(s) are reading this topic (2 Guests and 0 Anonymous Users)
0 Members:

 



- Lo-Fi Version Support form
Copyrights and abuse reports form
Time is now: 27th February 2020 - 16:08:04