Welcome Guest ( Log In | Register )

> И неформату есть предел.

Рэп/хип-хоп/шансон/поп удаляются. Для них есть свои порталы.

> Scorn - Café Mor (2019), Illbient/Dub/Industrial (D27)
post Dec 12 2019, 20:32:18
Post #1

Три Литра
***
Group: Завсегдатай
Posts: 229
Releases: 8
From: Санкт-Петербург
On Forums: 14 years 2 months
Thanks: 800 time(s)
Russian Federation


(IMG:http://metalarea.org/images/audiocovers/2019_Dec/acov_tid331443_thumb.jpg)

*Artist: Scorn
*Album: Café Mor
*Year: 2019
*Genre: Illbient/Dub/Industrial
*Country: United Kingdom (IMG:http://metalarea.org/forum/style_images/flags/United%20Kingdom.png)
*Format: mp3@CBR320kbps
*Size: 112MB

Tracklist:
01. Elephant 06:14
02. The Lower The Middle Our Bit 05:04
03. Mugwump Tea Room 06:10
04. Never Let It Be Said 05:43
05. Who Are They Which One 05:46
06. Dulse 06:31
07. Talk Whiff (feat. Jason Williamson) 05:51
08. SA70 07:16
******************************
Total playing time: 48:35

(IMG:http://metalarea.org/images/youtube.png)


Extended info
Новейший альбом основного проекта Мика Харриса (ex. Napalm Death), выпущенный после 9-летнего перерыва


Technical info
(IMG:http://metalarea.org/images/spectrogram/2019_Dec/edab8389e6e859e947641231cf82aba0.png)
Input File: 02 - The Lower The Middle Our Bit.mp3
Channels : 2
Sample Rate : 44100
Precision : 16-bit
Duration : 00:05:03.90 = 13402078 samples = 22792.6 CDDA sectors
File Size : 12.2M
Bit Rate : 322k
Sample Encoding: MPEG audio (layer I, II or III)
Comments :
Title=The Lower The Middle Our Bit
Artist=Scorn
Album=Café Mor
Tracknumber=02
Year=2019
Genre=Illbient/Dub/Industrial



Register


Go to the top of the page
  Insert nick Quick quote
+Quote Post
 
Start new topic
Replies (1 - 8)
post Dec 12 2019, 21:36:36
Post #2
BAN
Banned till
Jul 17 2020, 21:47:37



Хорошую музыку Харрис делает.
Go to the top of the page
  Insert nick Quick quote
+Quote Post
post Dec 12 2019, 21:51:27
Post #3

член общества защитников попсы
*******
Group: Металариец
Posts: 793
Releases: 1
From: Полтава
On Forums: 9 years 10 months
Thanks: 462 time(s)
Ukraine


Хопа, новый Скорн. А как же Фрет, Мик решил свернуть проект после одного альбома?
Go to the top of the page
  Insert nick Quick quote
+Quote Post
post Dec 12 2019, 22:16:51
Post #4

а ты попал в даунтаун
**********
Group: Металариец
Posts: 1,438
Releases: 53
From: Москва
On Forums: 11 years 3 months
Thanks: 3911 time(s)
Russian Federation


ЦИТАТА(Snowblind @ 12th December 2019 - 23:51:27) *
А как же Фрет, Мик решил свернуть проект после одного альбома?
А что с ним должно случиться?
https://www.discogs.com/Fret-Fret/release/13476887
https://www.discogs.com/Fret-Salford-Priors...elease/13721316
Go to the top of the page
  Insert nick Quick quote
+Quote Post
post Dec 15 2019, 20:27:06
Post #5

член общества защитников попсы
*******
Group: Металариец
Posts: 793
Releases: 1
From: Полтава
On Forums: 9 years 10 months
Thanks: 462 time(s)
Ukraine


Альбом агонь, Мик снова отжёг напалмом.
Go to the top of the page
  Insert nick Quick quote
+Quote Post
post Dec 15 2019, 22:44:35
Post #6

Три Литра
***
Group: Завсегдатай
Posts: 229
Releases: 8
From: Санкт-Петербург
On Forums: 14 years 2 months
Thanks: 800 time(s)
Russian Federation


Надо еще что-нибудь выкладывать из его творчества, кроме Скорна, или у всех всё есть?
Go to the top of the page
  Insert nick Quick quote
+Quote Post
post Dec 16 2019, 17:20:47
Post #7

член общества защитников попсы
*******
Group: Металариец
Posts: 793
Releases: 1
From: Полтава
On Forums: 9 years 10 months
Thanks: 462 time(s)
Ukraine


Хз, я давно упакован по полной.
Go to the top of the page
  Insert nick Quick quote
+Quote Post
post Dec 16 2019, 17:38:55
Post #8

Литр
*
Group: Подсевший
Posts: 50
Releases: 0
On Forums: 11 years 1 month
Thanks: 2 time(s)
Russian Federation


ЦИТАТА(as71 @ Dec 16 2019, 00:44:35) *
Надо еще что-нибудь выкладывать из его творчества, кроме Скорна, или у всех всё есть?

Конечно. Почему, нет? Можно кое-что и обновить.Having It (2000) в качестве, например. Семерки, десятки и т.д. тоже. Lull (2003) They're Coming Out Of The Walls, Quoit после 2001. Выкладывай.
Go to the top of the page
  Insert nick Quick quote
+Quote Post
post Dec 16 2019, 19:40:17
Post #9

Три Литра
***
Group: Завсегдатай
Posts: 229
Releases: 8
From: Санкт-Петербург
On Forums: 14 years 2 months
Thanks: 800 time(s)
Russian Federation


ЦИТАТА(Zhelezjaka @ 16th December 2019 - 19:38:55) *
Конечно. Почему, нет? Можно кое-что и обновить.Having It (2000) в качестве, например. Семерки, десятки и т.д. тоже. Lull (2003) They're Coming Out Of The Walls, Quoit после 2001. Выкладывай.

ОК, понемногу начну тогда.


Thanks:
(1) Ghostb,
Go to the top of the page
  Insert nick Quick quote
+Quote Post

Reply to this topicStart new topic
1 User(s) are reading this topic (1 Guests and 0 Anonymous Users)
0 Members:

 



- Lo-Fi Version Support form
Copyrights and abuse reports form
Time is now: 6th August 2020 - 14:01:33