Welcome Guest ( Log In | Register )

> Trvth - Inordinate And Surpassing (2019), Atmospheric/Depressive Black Metal (D9)
post Dec 13 2019, 14:52:42
Post #1

Serial Uploader
Group Icon
Group: V.I.P
Posts: 37,136
Releases: 35320
From: Lithuania
On Forums: 11 years 11 months
Thanks: 419649 time(s)
Lithuania


(IMG:http://metalarea.org/images/audiocovers/2019_Dec/acov_tid331464_thumb.jpg)

*Artist: Trvth
*Album: Inordinate And Surpassing
*Year: 2019
*Genre: Atmospheric/Depressive Black Metal
*Country: United States (IMG:http://metalarea.org/forum/style_images/flags/United%20States.png)
*Format: mp3@CBR320kbps
*Size: 125MB

Tracklist:
01. Breathing in Time 06:06
02. Standing in Place 04:16
03. Tu Testum 05:09
04. From the Sky 04:52
05. On the Cusp 08:38
06. Wake Up 04:24
07. What on Earth 05:45
08. Fuliginous Mind 05:57
09. Formulaic Emotions 01:22
10. Blurry 07:49
******************************
Total playing time: 54:18


(IMG:http://metalarea.org/images/youtube.png)

Technical info
(IMG:http://metalarea.org/images/spectrogram/2019_Dec/abee0c89a55e567102a427f603927312.png)
Input File: 03. Tu Testum.mp3
Channels : 2
Sample Rate : 44100
Precision : 16-bit
Duration : 00:05:09.62 = 13654242 samples = 23221.5 CDDA sectors
File Size : 12.5M
Bit Rate : 323k
Sample Encoding: MPEG audio (layer I, II or III)
Comments :
Title=Tu Testum
Artist=Trvth
Album=Inordinate and Surpassing
Tracknumber=3
Year=2019



Register


Go to the top of the page
  Insert nick Quick quote
+Quote Post
 
Start new topic
Replies (1 - 1)
post Dec 13 2019, 21:33:09
Post #2

ME[ta]LLOMAN
**************
Group: Металариец
Posts: 4,966
Releases: 3
From: Avdeyevka
On Forums: 14 years 1 month
Thanks: 1946 time(s)
Honduras


ЦИТАТА(necroscum @ Dec 13 2019, 13:52:42) *
*Genre: Atmospheric/Depressive Black Metal

false (IMG:style_emoticons/default/23.gif)


Thanks:
(1) Nemez,
Go to the top of the page
  Insert nick Quick quote
+Quote Post

Reply to this topicStart new topic
1 User(s) are reading this topic (1 Guests and 0 Anonymous Users)
0 Members:

 



- Lo-Fi Version Support form
Copyrights and abuse reports form
Time is now: 6th June 2020 - 09:03:56