Welcome Guest ( Log In | Register )

> Правила / Rules

Тут только для чтения лежат низкобитрейтные (<192kbps) релизы, для которых есть аналоги в высокобитрейтных форумах.

Here goes (and stand in read only mode) low bitrate releases (<192kbps) which were already replaced by high bitrate releases in corresponding forums.

Причина закрытия (Хогги 28-12-2019):
 
Closed TopicStart new topic
> Shadow's Mortuary - Kuoleman Portit (2019), Black Metal
post Dec 14 2019, 22:38:50
Post #1

Четыре Литра
****
Group: Металариец
Posts: 359
Releases: 20
On Forums: 11 years 5 months
Thanks: 462 time(s)
United Kingdom


(IMG:http://metalarea.org/images/audiocovers/2019_Dec/acov_tid331513_thumb.jpg)

*Artist: Shadow's Mortuary
*Album: Kuoleman Portit
*Year: 2019
*Genre: Black Metal
*Country: Finland (IMG:http://metalarea.org/forum/style_images/flags/Finland.png)
*Format: mp3@CBR320kbps
*Size: 70MB

Tracklist:
1. Sielun tuhkaa 03:43
2. Ikisodan hurmo 04:01
3. Riipus 04:00
4. Virran viemä, tulen tuoma 02:44
5. Soihdunkantaja 03:35
6. Ruoska 04:41
7. Kuoleman portit 03:44
8. Ouroboros 04:27
******************************
Total playing time: 30:55

Technical info
(IMG:http://metalarea.org/images/spectrogram/2019_Dec/3f5895d7c2a8c9f19c6f1493c7aa3845.png)
Input File: 1. Sielun tuhkaa.mp3
Channels : 2
Sample Rate : 44100
Precision : 16-bit
Duration : 00:03:42.16 = 9797256 samples = 16662 CDDA sectors
File Size : 8.98M
Bit Rate : 324k
Sample Encoding: MPEG audio (layer I, II or III)
Comments :
Title=Sielun tuhkaa
Artist=Shadow's Mortuary
Album=Kuoleman portit
Tracknumber=1
Year=2019



Register


Go to the top of the page
  Insert nick Quick quote
+Quote Post

Причина закрытия (Хогги 28-12-2019):
Closed TopicStart new topic
1 User(s) are reading this topic (1 Guests and 0 Anonymous Users)
0 Members:

 



- Lo-Fi Version Support form
Copyrights and abuse reports form
Time is now: 12th August 2020 - 21:14:09