Welcome Guest ( Log In | Register )

> Releases Upload / Добавление релизов

Добавить релиз тут / Click here to add release
Рекомендованные обменники / Recommended file shares

> Gunjack - The Cult Of Triblade (2019), Heavy/Speed Metal
post Dec 15 2019, 17:19:19
Post #1

Правь статус, ####!111
**************
Group: Металариец
Posts: 20,358
Releases: 13881
From: Г.Харьков
On Forums: 7 years 8 months
Thanks: 243528 time(s)
Unknown


(IMG:http://metalarea.org/images/audiocovers/2019_Dec/acov_tid331543_thumb.jpg)

*Artist: Gunjack
*Album: The Cult Of Triblade
*Year: 2019
*Genre: Heavy/Speed Metal
*Country: Italy (IMG:http://metalarea.org/forum/style_images/flags/Italy.png)
*Format: mp3@CBR320kbps
*Size: 104MB

Tracklist:
1. The Cult of Triblade 02:45
2. Behind The Truth 03:24
3. I'm Not Innocent 03:38
4. District 9 03:32
5. Fukushima 02:44
6. New Cold Soldier 03:10
7. Immortals 03:31
8. Mind's Annihilation 04:05
9. Kneel Down 03:49
10. Normandy 03:59
11. Lake of Uniforms 05:24
12. Triblade 01:56
13. Last Conflict 03:10
******************************
Total playing time: 45:07




Extended info
M47 Drums, Vocals (backing)
See also: Conviction, Bleedin Before Fight, N.F.B., ex-V-Anger
Gamma Mörser Guitars (lead), Vocals (backing)
See also: Heavy Generation, The Silence, Motorhell, ex-Ataxia, ex-Breath of Fire, ex-N.O.A., ex-Trauma
Mr. Messerschmitt Vocals (lead), Bass
See also: Necroshine, Speculum Mortis (live), ex-Drown in Blood (live), Motorhell, ex-V-Anger



Technical info
(IMG:http://metalarea.org/images/spectrogram/2019_Dec/75cfeaa991f3c944fb38ef8120983069.png)
Input File: 4 - District 9.mp3
Channels : 2
Sample Rate : 44100
Precision : 16-bit
Duration : 00:03:32.31 = 9362783 samples = 15923.1 CDDA sectors
File Size : 8.58M
Bit Rate : 323k
Sample Encoding: MPEG audio (layer I, II or III)
Comments :
Title=District 9
Artist=Gunjack
Album=The Cult Of Triblade
Tracknumber=4
Year=2019
Genre=Metal
Discnumber=1



Register


Go to the top of the page
  Insert nick Quick quote
+Quote Post
 
Start new topic
Replies (1 - 1)
post Dec 15 2019, 19:05:51
Post #2

Правь статус, ####!111
**************
Group: Металариец
Posts: 20,358
Releases: 13881
From: Г.Харьков
On Forums: 7 years 8 months
Thanks: 243528 time(s)
Unknown


Cloud Mail 320
Register


Thanks:
(1) postal67,
Go to the top of the page
  Insert nick Quick quote
+Quote Post

Reply to this topicStart new topic
1 User(s) are reading this topic (1 Guests and 0 Anonymous Users)
0 Members:

 



- Lo-Fi Version Support form
Copyrights and abuse reports form
Time is now: 29th January 2020 - 21:18:47