Welcome Guest ( Log In | Register )

> И неформату есть предел.

Рэп/хип-хоп/шансон/поп удаляются. Для них есть свои порталы.

> The Weakener - What Do You Know About It (1998), Illbient/Dub/Industrial
post Dec 16 2019, 22:07:13
Post #1

Маньяк
**********
Group: Металариец
Posts: 1,193
Releases: 57
From: Санкт-Петербург
On Forums: 16 years 4 months
Thanks: 3283 time(s)
Russian Federation


(IMG:http://metalarea.org/images/audiocovers/2019_Dec/acov_tid331581_thumb.jpg)

*Artist: The Weakener
*Album: What Do You Know About It
*Year: 1998
*Genre: Illbient/Dub/Industrial
*Country: United Kingdom (IMG:http://metalarea.org/forum/style_images/flags/United%20Kingdom.png)
*Format: mp3@CBR320kbps
*Size: 117MB

Tracklist:
01. Spotter 06:34
02. Closed Door 09:40
03. Know Nothing 06:07
04. Pinging 08:23
05. 50 Route 06:39
06. This Place 05:42
07. Silent Dust 07:53
******************************
Total playing time: 50:58

(IMG:http://metalarea.org/images/youtube.png)

Extended info
Единственный альбом одного из многочисленных проектов Мика Харриса. Как обычно - мощно, тяжело и мрачно.

The album What Do You Know About It (WSCD026), a WordSound exclusive, is a spine-tingling trip through the dark dungeons of dub-hop. Imagine the offbeat breaks and bone-crushing bass of Scorn married to subsonic ambience and melodic riffs and samples treated with Harris's own brand of deviant dub surgery. While minimalism is the key here, subsequent listenings will reveal layers of ethereal beauty creeping through the cadavers of these ill sonic remains. The Weakener nicely fills the niche left by underground favorites Scorn, while taking Harris's productions to the next level--deeper into the abyss, that is.
Behind the closed door, you will fumble around in confusion, sink into a stupor, and get clouded by the haze. This place is not for the weak of heart. What do you know about it? Absolutely nothing until you take a leap of faith into the darkness.


Technical info
(IMG:http://metalarea.org/images/spectrogram/2019_Dec/87dac32d54234dfbbb128e263dad0a05.png)
Input File: 03 - Know Nothing.mp3
Channels : 2
Sample Rate : 44100
Precision : 16-bit
Duration : 00:06:06.68 = 16170500 samples = 27500.9 CDDA sectors
File Size : 14.7M
Bit Rate : 320k
Sample Encoding: MPEG audio (layer I, II or III)
Comments :
Title=Know Nothing
Artist=The Weakener
Album=What Do You Know About It
Tracknumber=03
Year=1998
Genre=Illbient/Ambient Dub/Industrial



Register


Go to the top of the page
  Insert nick Quick quote
+Quote Post
 
Start new topic
Replies (1 - 2)
post Dec 17 2019, 03:23:29
Post #2

врач педиатр-патологоанатом
*****
Group: Металариец
Posts: 489
Releases: 23
From: Кадыкчан
On Forums: 13 years 2 months
Thanks: 531 time(s)
Russian Federation


Непонятно, зачем это понадобилось выпускать под другим названием, если по музыке от Scorn ничем особо и не отличается.


Thanks:
(1) Ghostb,
Go to the top of the page
  Insert nick Quick quote
+Quote Post
post Jun 23 2022, 14:54:34
Post #3

Маньяк
**********
Group: Металариец
Posts: 1,193
Releases: 57
From: Санкт-Петербург
On Forums: 16 years 4 months
Thanks: 3283 time(s)
Russian Federation


ЦИТАТА(Infidel @ 17th December 2019 - 05:23:29) *
Непонятно, зачем это понадобилось выпускать под другим названием, если по музыке от Scorn ничем особо и не отличается.

Да нет, все-таки отличается. Хотя, конечно, альбом в том же духе, что и Скорн второй половины 90-х, но вряд ли получится его с каким-то из альбомов Скорна перепутать - здесь все еще более монотонно, заторможено и вязко.
Go to the top of the page
  Insert nick Quick quote
+Quote Post

Reply to this topicStart new topic
1 User(s) are reading this topic (1 Guests and 0 Anonymous Users)
0 Members:

 



- Lo-Fi Version Support form
Copyrights and abuse reports form
Time is now: 25th September 2022 - 09:53:53