Welcome Guest ( Log In | Register )

> И неформату есть предел.

Рэп/хип-хоп/шансон/поп удаляются. Для них есть свои порталы.

> She Past Away - Narin Yalnızlık (2015), Post-Punk/Gothic Rock/Coldwave
post Dec 20 2019, 20:44:39
Post #1

Два Литра
**
Group: Завсегдатай
Posts: 162
Releases: 6
From: Санкт-Петербург
On Forums: 13 years 9 months
Thanks: 447 time(s)
Russian Federation


(IMG:http://metalarea.org/images/audiocovers/2019_Dec/acov_tid331726_thumb.jpg)

*Artist: She Past Away
*Album: Narin Yalnızlık
*Year: 2015
*Genre: Post-Punk/Gothic Rock/Coldwave
*Country: Turkey (IMG:http://metalarea.org/forum/style_images/flags/Turkey.png)
*Format: mp3@CBR320kbps
*Size: 105MB

Tracklist:
01. Soluk 4:59
02. Asimilasyon 4:14
03. Uzakta 4:30
04. Narin Yalnızlık 4:16
05. Hayaller? 5:06
06. Katarsis 3:15
07. Uçtu Belirsizliğe 5:33
08. Gerçekten Özleyince 4:50
09. Yanımda 3:46
10. Kuruyordu Nehir 3:27
11. İçe Kapanış II 2:11
******************************
Total playing time: 46:07

(IMG:http://metalarea.org/images/youtube.png)

Extended info
Второй альбом турков, вполне на уровне дебютного.


Technical info
(IMG:http://metalarea.org/images/spectrogram/2019_Dec/cc1551bc867749458065da27fc015320.png)
Input File: 01 - Soluk.mp3
Channels : 2
Sample Rate : 44100
Precision : 16-bit
Duration : 00:04:59.44 = 13205084 samples = 22457.6 CDDA sectors
File Size : 12.0M
Bit Rate : 321k
Sample Encoding: MPEG audio (layer I, II or III)
Comments :
Title=Soluk
Artist=She Past Away
Album=Narin Yalnızlık
Tracknumber=01
Year=2015
Genre=Post-Punk/Gothic Rock/Coldwave



Register


Go to the top of the page
  Insert nick Quick quote
+Quote Post
 
Start new topic
Replies (1 - 1)
post Dec 20 2019, 21:01:19
Post #2

Ледоруб
**************
Group: Металариец
Posts: 24,060
Releases: 0
From: Санкт-Петербург
On Forums: 10 years 5 months
Thanks: 8188 time(s)
Russian Federation


Своевременно.


Thanks:
(1) Ghostb,
Go to the top of the page
  Insert nick Quick quote
+Quote Post

Reply to this topicStart new topic
2 User(s) are reading this topic (2 Guests and 0 Anonymous Users)
0 Members:

 



- Lo-Fi Version Support form
Copyrights and abuse reports form
Time is now: 18th February 2020 - 10:26:37