Welcome Guest ( Log In | Register )

> Astral Tomb - Subterranean Forms [ep] (2019), Death Metal
post Dec 20 2019, 23:07:53
Post #1

Правь статус, ####!111
**************
Group: Металариец
Posts: 20,644
Releases: 14092
From: Г.Харьков
On Forums: 7 years 9 months
Thanks: 248589 time(s)
Unknown


(IMG:http://metalarea.org/images/audiocovers/2019_Dec/acov_tid331733_thumb.jpg)

*Artist: Astral Tomb
*Album: Subterranean Forms [ep]
*Year: 2019
*Genre: Death Metal
*Country: United States (IMG:http://metalarea.org/forum/style_images/flags/United%20States.png)
*Format: mp3@CBR320kbps
*Size: 61MB

Tracklist:
1. Beneath the Pyramids 05:36
2. Chtionian Planet 08:42
3. Species Below 03:35
4. Mammoth Realm 03:54
5. Cavern Spawn 04:22
******************************
Total playing time: 26:09



Extended info
Jack Malinzak Bass (2018-present)
Adrian McClair Drums (2018-present)
Nic De La Paz Guitars (2018-present)
Michael Schrock Guitars, Vocals (2018-present)


Technical info
(IMG:http://metalarea.org/images/spectrogram/2019_Dec/8ee2a2be7c32a94efe846260a845232b.png)
Input File: 02.Chtionian Planet.mp3
Channels : 2
Sample Rate : 44100
Precision : 16-bit
Duration : 00:08:42.14 = 23026418 samples = 39160.6 CDDA sectors
File Size : 21.2M
Bit Rate : 325k
Sample Encoding: MPEG audio (layer I, II or III)
Comments :
Title=Chtionian Planet
Artist=Astral Tomb
Album=Subterranean Forms (320)
Tracknumber=2
Year=2019
Genre=Death Metal



Register


Go to the top of the page
  Insert nick Quick quote
+Quote Post
 
Start new topic
Replies (1 - 1)
post Dec 21 2019, 13:44:08
Post #2

Шесть Литров
******
Group: Металариец
Posts: 537
Releases: 1
From: АР Крым, Симферополь
On Forums: 11 years 10 months
Thanks: 238 time(s)
Russian Federation


ЦИТАТА
PRIMITIVE INTERGALACTIC OLD SCHOOL FINNISH DEATH METAL

"Astral Tomb is a 4 piece Primitive Intergalactic Old School Finnish style Death Metal band based out of Denver, CO. They Incorporate characteristics and techniques from their influences such as Horrendous, Blood Incantation, Tomb Mold and Timeghoul."
- SEVARED RECORDS


Thanks:
Go to the top of the page
  Insert nick Quick quote
+Quote Post

Reply to this topicStart new topic
2 User(s) are reading this topic (2 Guests and 0 Anonymous Users)
0 Members:

 



- Lo-Fi Version Support form
Copyrights and abuse reports form
Time is now: 21st February 2020 - 04:20:22