Welcome Guest ( Log In | Register )

> Bethledeign - Iconography Of Suffering (2019), Death Metal
post Dec 21 2019, 16:21:16
Post #1

Правь статус, ####!111
**************
Group: Металариец
Posts: 20,664
Releases: 14111
From: Г.Харьков
On Forums: 7 years 9 months
Thanks: 249225 time(s)
Unknown


(IMG:http://metalarea.org/images/audiocovers/2019_Dec/acov_tid331754_thumb.jpg)

*Artist: Bethledeign
*Album: Iconography Of Suffering
*Year: 2019
*Genre: Death Metal
*Country: United States (IMG:http://metalarea.org/forum/style_images/flags/United%20States.png)
*Format: mp3@CBR320kbps
*Size: 74MB

Tracklist:
1. Domain 04:52
2. Invoking the Apostasy 02:51
3. Opens-Eviscerates 03:52
4. Eight Pointed Star 05:02
5. Iconography of Suffering 03:42
6. The Lament Configuartion 04:12
7. Besieged By Night 04:23
8. Prey for Oblivion 02:53
******************************
Total playing time: 31:47



Extended info
Tony Petrocelly Guitars (2005-2006), Guitars, Bass, Vocals (2019-present)
See also: Affasia, Construct of Lethe, Grethor, Lord, Revulsive, ex-Dead Syndicate, ex-Deranged Theory, ex-Xaoc
Giulio Galati Drums (2019-present)
See also: Hideous Divinity, Kenòs, Mass Infection, Nero di Marte, Onryō, Blasphemer (live), Bloodshot Dawn (live), Master Boot Record (live), Germanotta Youth, ex-Ade, ex-Deceptionist, ex-Verano's Dogs (live), ex-In Case of Carnage, ex-Voron, ex-Tibia (live)
Gus Barr Guitars (lead) (2019-present)
See also: Detritus, Lago


Technical info
(IMG:http://metalarea.org/images/spectrogram/2019_Dec/284e50e289a90e1bbc9fd9021f5ba4ad.png)
Input File: 04. Eight Pointed Star.mp3
Channels : 2
Sample Rate : 48000
Precision : 16-bit
Duration : 00:05:02.33 = 14511888 samples ~ 22674.8 CDDA sectors
File Size : 12.2M
Bit Rate : 323k
Sample Encoding: MPEG audio (layer I, II or III)
Comments :
Title=Eight Pointed Star
Artist=Bethledeign
Album=Iconography of Suffering
Tracknumber=4
Year=2019



Register


Go to the top of the page
  Insert nick Quick quote
+Quote Post
 
Start new topic
Replies (1 - 2)
post Dec 21 2019, 20:22:22
Post #2
BAN
Banned till
Jul 22 2202, 06:47:53



Наверное стоит вспомнить ,что так вкусно выдвигать ударные могли только в олд-скульные времена .Да и вообще это по музлу напоминает до боли знакомую нашу старую очень группу .А ну , кто первый ? Классики.Так могли только они .
Барабанный олд-скул ,с наверное все-таки правильно будет сказануть ,брутальными риффами дета.Хотя это от социума .Где тут брутал ,ума не приложу.Ритмичный гитарный дет ,пост-олдскульного периода , с его чистотой гитарного звука .Того периода ,что перед великой детовой депрессией был 97-2003 гадов примерно .Поэтому такого щас малА.И хочется .Кстати именно у МДМ этой депрессии и не было .Поэтому это и не брутал и не Melodic Death.А воспринимается так сейчас ,потому , что вкусно ,чисто ,ритмично и необычна барабанно и не туманно ,а весело и живо .Да и по простаку это классный соло-альбом для ударника .Думаю такой мастер ударных дел ,как Giulio Galati - Drums (Hideous Divinity, Kenòs, Mass Infection, Nero di Marte, Onryō , не согласился бы выдать свой продуманный и выточенный и сотворенный соло -альбом на эту гитарно-гроулинговую вкусность , если бы и ежу было не понятно шо материал нищяк.Другой вопрос ,что нынешние не оценят ,так как исус перед свиньями бисер только сам бросал , а других отговаривал.


Go to the top of the page
  Insert nick Quick quote
+Quote Post
post Jan 15 2020, 14:09:37
Post #3

Правь статус, ####!111
**************
Group: Металариец
Posts: 3,760
Releases: 11
From: Москва и МО
On Forums: 13 years 7 months
Thanks: 1018 time(s)
Russian Federation


QUOTE(slonin @ Dec 22 2019, 05:22:22) *
Наверное стоит вспомнить ,что так вкусно выдвигать ударные могли только в олд-скульные времена .Да и вообще это по музлу напоминает до боли знакомую нашу старую очень группу .А ну , кто первый ? Классики.Так могли только они .


Так я и не узнаю, о ком речь, т.к. бан до послеследующего века (IMG:style_emoticons/default/smile2.gif)

В основе своей это мелодик дэт, и когда они делают мелодичные куски, звучит это просто космически. Жаль, мелодичности тут не так много, поэтому жанр просто Death Metal подходит лучше всего.
Прекрасно выдвинутый вперед бас просто выносит мозг. И в целом звук здесь делает больше половины работы. Просто сумасшедше круто все звучит.
Но, опять же мало и мало мелодичности, поэтому ставить высочайший балл - побоюсь.
Go to the top of the page
  Insert nick Quick quote
+Quote Post

Reply to this topicStart new topic
1 User(s) are reading this topic (1 Guests and 0 Anonymous Users)
0 Members:

 



- Lo-Fi Version Support form
Copyrights and abuse reports form
Time is now: 24th February 2020 - 09:59:18