Welcome Guest ( Log In | Register )

> End Of Sanctum - The Rising (2019), Melodic Death Metal
post Dec 21 2019, 19:06:56
Post #1

Правь статус, ####!111
**************
Group: Металариец
Posts: 20,692
Releases: 14128
From: Г.Харьков
On Forums: 7 years 9 months
Thanks: 249752 time(s)
Unknown


(IMG:http://metalarea.org/images/audiocovers/2019_Dec/acov_tid331760_thumb.jpg)

*Artist: End Of Sanctum
*Album: The Rising
*Year: 2019
*Genre: Melodic Death Metal
*Country: Germany (IMG:http://metalarea.org/forum/style_images/flags/Germany.png)
*Format: mp3@CBR320kbps
*Size: 57MB

Tracklist:
01. Intro 00:59
02. Predator 04:21
03. Desperate Times 03:07
04. The Rising 02:59
05. Nemesis 04:01
06. Evolution 02:49
07. Fairytale 02:59
08. Time Has Come 03:53
******************************
Total playing time: 25:08



Extended info
Vocals: Maik
Drums: Gizmo
Guitar: Fuchs
Guitar: Morty
Bass: Sultan



Technical info
(IMG:http://metalarea.org/images/spectrogram/2019_Dec/e794a368ed41223d9b72a8ee3c30330c.png)
Input File: 05 - Nemesis.mp3
Channels : 2
Sample Rate : 44100
Precision : 16-bit
Duration : 00:04:01.09 = 10631849 samples = 18081.4 CDDA sectors
File Size : 9.65M
Bit Rate : 320k
Sample Encoding: MPEG audio (layer I, II or III)
Comments :
Title=Nemesis
Artist=End of Sanctum
Album=The Rising
Tracknumber=5
Year=2019
Genre=Death Metal



Register


Go to the top of the page
  Insert nick Quick quote
+Quote Post
 
Start new topic
Replies (1 - 6)
post Dec 21 2019, 21:22:46
Post #2

MDM-Thrash Metal
**************
Group: Металариец
Posts: 9,273
Releases: 781
From: Одесса
On Forums: 12 years 6 months
Thanks: 21050 time(s)
Ukraine



Очень приличный олд скульный мелодез!
Без кора, грува, клавиш, чистоголосья и прочей ненужной херни. Хороший, добротный материал! (IMG:style_emoticons/default/20.gif)


Go to the top of the page
  Insert nick Quick quote
+Quote Post
post Dec 22 2019, 18:16:49
Post #3

Правь статус, ####!111
**************
Group: Металариец
Posts: 20,692
Releases: 14128
From: Г.Харьков
On Forums: 7 years 9 months
Thanks: 249752 time(s)
Unknown


ЦИТАТА(slonin @ 21st December 2019 - 22:30:28) *
Надо Флаак

FLAC (Tracks) 191 mb
Register


Thanks:
Go to the top of the page
  Insert nick Quick quote
+Quote Post
post Jan 4 2020, 12:00:54
Post #4

Ъ
**************
Group: Металариец
Posts: 9,927
Releases: 9
On Forums: 11 years 1 month
Thanks: 1968 time(s)
Sweden


Третьесорт, на раз послушать норм.
Go to the top of the page
  Insert nick Quick quote
+Quote Post
post Jan 4 2020, 19:40:30
Post #5

MDM-Thrash Metal
**************
Group: Металариец
Posts: 9,273
Releases: 781
From: Одесса
On Forums: 12 years 6 months
Thanks: 21050 time(s)
Ukraine


ЦИТАТА(DenisKov @ Jan 4 2020, 15:00:54) *
на раз послушать норм.

Да и на два и на три.
Нормальный альбом!
Go to the top of the page
  Insert nick Quick quote
+Quote Post
post Jan 11 2020, 21:56:32
Post #6

MDM-Thrash Metal
**************
Group: Металариец
Posts: 9,273
Releases: 781
From: Одесса
On Forums: 12 years 6 months
Thanks: 21050 time(s)
Ukraine


Go to the top of the page
  Insert nick Quick quote
+Quote Post
post Jan 14 2020, 15:31:43
Post #7

Правь статус, ####!111
**************
Group: Металариец
Posts: 3,764
Releases: 11
From: Москва и МО
On Forums: 13 years 7 months
Thanks: 1020 time(s)
Russian Federation


Записались бы, как положено, могли бы дотянуть до нижней границы второсорта.
Но звук как-то отбил все желание вслушиваться.


Thanks:
(1) Foneg,
Go to the top of the page
  Insert nick Quick quote
+Quote Post

Reply to this topicStart new topic
1 User(s) are reading this topic (1 Guests and 0 Anonymous Users)
0 Members:

 



- Lo-Fi Version Support form
Copyrights and abuse reports form
Time is now: 27th February 2020 - 09:07:37