Welcome Guest ( Log In | Register )

> Svartgren - Divlja Vatra (2019), Black Metal
post Dec 21 2019, 20:19:02
Post #1

Правь статус, ####!111
**************
Group: Металариец
Posts: 22,292
Releases: 15430
From: Г.Харьков
On Forums: 8 years 1 month
Thanks: 282380 time(s)
Unknown


(IMG:http://metalarea.org/images/audiocovers/2019_Dec/acov_tid331763_thumb.jpg)

*Artist: Svartgren
*Album: Divlja Vatra
*Year: 2019
*Genre: Black Metal
*Country: Serbia (IMG:http://metalarea.org/forum/style_images/flags/Serbia.png)
*Format: mp3@CBR320kbps
*Size: 90MB

Tracklist:
1. Lapot 06:02
2. Kruna svega 05:52
3. Posvecenost 05:09
4. Kapija svetova 03:45
5. Usidren 05:09
6. Pesma srpova 04:37
7. Divlja vatra 06:26
8. Milijarde zvezda 04:56
******************************
Total playing time: 41:56




Extended info
Vuk Guitars
See also: Seljačka Buna, ex-Worg, ex-Лапот, ex-Decontrolled, ex-KRK!
Alexandar Stefanović Guitars, Vocals (2005-present)
See also: Propast (live), ex-Лапот, ex-Bethor, ex-Infest, ex-May Result (live)
Andrew Guitars (2016-present)
See also: Barshasketh, Belliciste, Bròn, Dunkelheit, Nadsvest, ex-Cathedra, ex-Blood of the Moon
Aksinomantijan Drums (2017-present)
See also: Propast, ex-The Stone, ex-Infest (live), ex-In Cold Silence, ex-Posmrtna Liturgija, ex-Zaklan, ex-Debauchery (live)



Technical info
(IMG:http://metalarea.org/images/spectrogram/2019_Dec/977147ed834857394cc35eedc37e64c5.png)
Input File: 03. Posvecenost.mp3
Channels : 2
Sample Rate : 44100
Precision : 16-bit
Duration : 00:05:08.58 = 13608290 samples = 23143.4 CDDA sectors
File Size : 12.4M
Bit Rate : 321k
Sample Encoding: MPEG audio (layer I, II or III)
Comments :
Title=Posvecenost
Artist=Svartgren
Album=Divlja Vatra
Tracknumber=3/8
Year=2019
Discnumber=1/1



Register


Go to the top of the page
  Insert nick Quick quote
+Quote Post
 
Start new topic
Replies (1 - 2)
post Dec 22 2019, 12:19:18
Post #2

Два Литра
**
Group: Завсегдатай
Posts: 137
Releases: 2
From: г. Нальчик
On Forums: 7 years 6 months
Thanks: 375 time(s)
Russian Federation


Svartgren - Divlja Vatra (2019) FLAC (tracks), lossless 300 MB
Register


Go to the top of the page
  Insert nick Quick quote
+Quote Post
post Feb 1 2020, 21:01:48
Post #3

Пять Литров
*****
Group: Металариец
Posts: 401
Releases: 80
On Forums: 6 years 8 months
Thanks: 1606 time(s)
Serbia


Register


Thanks:
Go to the top of the page
  Insert nick Quick quote
+Quote Post

Reply to this topicStart new topic
1 User(s) are reading this topic (1 Guests and 0 Anonymous Users)
0 Members:

 



- Lo-Fi Version Support form
Copyrights and abuse reports form
Time is now: 9th July 2020 - 02:26:40