Welcome Guest ( Log In | Register )

> 

Здесь релизы с живыми прямыми ссылками на lossless

> Obsessor - Obsession Collection [compilation] (2013), Thrash Metal/Crossover/Punk
post Dec 24 2019, 19:19:50
Post #1

Шесть Литров
******
Group: Металариец
Posts: 516
Releases: 106
On Forums: 1 year 3 weeks
Thanks: 1151 time(s)
Canada


(IMG:https://metalarea.org/images/audiocovers/2019_Dec/acov_tid331836_thumb.jpg)

*Artist: Obsessor
*Album: Obsession Collection [compilation]
*Year: 2013
*Genre: Thrash Metal/Crossover/Punk
*Country: United States (IMG:https://metalarea.org/forum/style_images/flags/United%20States.png)
*Format: mp3@CBR320kbps
*Size: 52MB

Tracklist:
1. Obsession 02:57
2. Underworld 02:17
3. Sick Salvation 02:53
4. The Demon 02:12
5. In Fear of the End 02:58
6. Aftershock 02:56
7. Mental Hell 02:35
8. Evil Supremacy 03:07
******************************
Total playing time: 21:55

Extended info
Similar Artists
- Toxic Holocaust United States Speed/Thrash/Black Metal
- Municipal Waste United States Thrash Metal/Crossover
- English Dogs United Kingdom Hardcore Punk/Speed/Power Metal/Crossover
- Broken Bones United Kingdom Thrash Metal/Crossover/Hardcore Punk

https://www.metal-archives.com/albums/Obses...llection/382957

USA (Richmond, Virginia)

Collection of previously released singles. Remastered.

Release date: July 9th, 2013
Catalog ID: TC66
Version: Limited edition
Label: Tankcrimes
Format: 12" vinyl (45 RPM)
Limitation: 500 copies


Technical info
(IMG:https://metalarea.org/images/spectrogram/2019_Dec/b7478862c4013a70d57d4984621ebc68.png)
Input File: Obsessor - Obsession Collection - 01 Obsession.mp3
Channels : 2
Sample Rate : 44100
Precision : 16-bit
Duration : 00:02:57.12 = 7810948 samples = 13283.9 CDDA sectors
File Size : 7.41M
Bit Rate : 335k
Sample Encoding: MPEG audio (layer I, II or III)
Comments :
Title=Obsession
Artist=Obsessor
Album=Obsession Collection
Tracknumber=1
Year=2013



Register


Go to the top of the page
  Insert nick Quick quote
+Quote Post
 
Start new topic
Replies (1 - 1)
post Dec 26 2019, 05:52:49
Post #2

Шесть Литров
******
Group: Металариец
Posts: 516
Releases: 106
On Forums: 1 year 3 weeks
Thanks: 1151 time(s)
Canada


Obsessor - Obsession Collection ALAC 168.0 MB
Register

Obsessor - Obsession Collection AAC. 25.4 MB
Register

Obsessor - Obsession Collection (.ogg) 32.7 MB
Register
Go to the top of the page
  Insert nick Quick quote
+Quote Post

Reply to this topicStart new topic
1 User(s) are reading this topic (1 Guests and 0 Anonymous Users)
0 Members:

 



- Lo-Fi Version Support form
Copyrights and abuse reports form
Time is now: 25th February 2020 - 01:38:00