Welcome Guest ( Log In | Register )

> Goatsmegma - Demonic Goat Smegma Eating Ritual (2019), Black/Death Metal
post Dec 28 2019, 08:25:53
Post #1

Правь статус, ####!111
**************
Group: Металариец
Posts: 4,513
Releases: 1267
From: Brazil
On Forums: 8 years 5 months
Thanks: 47548 time(s)
Brazil


(IMG:https://metalarea.org/images/audiocovers/2019_Dec/acov_tid331937_thumb.jpg)

*Artist: Goatsmegma
*Album: Demonic Goat Smegma Eating Ritual
*Year: 2019
*Genre: Black/Death Metal
*Country: Estonia (IMG:https://metalarea.org/forum/style_images/flags/Estonia.png)
*Format: mp3@CBR320kbps
*Size: 49MB

Tracklist:
1. Fornicating in Goat Feces 02:27
2. Demonic Goat Smegma Eating Ritual 03:16
3. Necrophiliac Bestiality 01:52
4. Licking the Goat's Vaginal Prolapse in the Name of Baphomet 02:52
5. Chaotic Anal Intercourse with the Goat 02:45
6. Satanic Rape Terrorism with Virgin 02:37
7. Inserting an Inverted Cross into Goat Uterus 01:36
8. Urophiliac Human Sacrifice 03:28
******************************
Total playing time: 20:53



Extended info
Morbid Chapel Records


Technical info
(IMG:https://metalarea.org/images/spectrogram/2019_Dec/1f843770bb8aceaaca9014b156e30cc6.png)
Input File: 02 Demonic Goat Smegma Eating Ritual.mp3
Channels : 2
Sample Rate : 44100
Precision : 16-bit
Duration : 00:03:16.48 = 8664636 samples = 14735.8 CDDA sectors
File Size : 7.86M
Bit Rate : 320k
Sample Encoding: MPEG audio (layer I, II or III)
Comments :
Title=Demonic Goat Smegma Eating Ritual
Artist=Goatsmegma
Album=Demonic Goat Smegma Eating Ritual
Tracknumber=2
Year=2019



Register


Go to the top of the page
  Insert nick Quick quote
+Quote Post
 
Start new topic
Replies (1 - 3)
post Dec 28 2019, 12:45:08
Post #2

De Mysteriis Dom Sathanas
**************
Group: Металариец
Posts: 3,994
Releases: 63
From: Doom
On Forums: 12 years 19 hours
Thanks: 3397 time(s)
Russian Federation


Облога ниче так, по музыке пока неясно, буду слушать (IMG:style_emoticons/default/25.gif)
Go to the top of the page
  Insert nick Quick quote
+Quote Post
post Jan 2 2020, 17:23:37
Post #3

...Only Death Is Real...
**************
Group: Металариец
Posts: 2,841
Releases: 16
On Forums: 9 years 11 months
Thanks: 1848 time(s)
Antarctica


Хорошая козлятина. (IMG:style_emoticons/default/true_black.gif)
Go to the top of the page
  Insert nick Quick quote
+Quote Post
post Jan 4 2020, 18:20:26
Post #4

De Mysteriis Dom Sathanas
**************
Group: Металариец
Posts: 3,994
Releases: 63
From: Doom
On Forums: 12 years 19 hours
Thanks: 3397 time(s)
Russian Federation


ЦИТАТА(Hell_Is_Here @ Jan 2 2020, 19:23:37) *
Хорошая козлятина. (IMG:style_emoticons/default/true_black.gif)

Да, норм оказалась (IMG:style_emoticons/default/true_black.gif)
Go to the top of the page
  Insert nick Quick quote
+Quote Post

Reply to this topicStart new topic
1 User(s) are reading this topic (1 Guests and 0 Anonymous Users)
0 Members:

 



- Lo-Fi Version Support form
Copyrights and abuse reports form
Time is now: 14th July 2020 - 09:59:14