Welcome Guest ( Log In | Register )

> Trépas - L'héritage Du Monde (2019), Atmospheric Black Metal
post Dec 28 2019, 08:40:29
Post #1

Правь статус, ####!111
**************
Group: Металариец
Posts: 4,790
Releases: 1471
From: Brazil
On Forums: 9 years 3 weeks
Thanks: 54385 time(s)
Brazil


(IMG:https://metalarea.org/images/audiocovers/2019_Dec/acov_tid331941_thumb.jpg)

*Artist: Trépas
*Album: L'héritage Du Monde
*Year: 2019
*Genre: Atmospheric Black Metal
*Country: Canada (IMG:https://metalarea.org/forum/style_images/flags/Canada.png)
*Format: mp3@CBR320kbps
*Size: 90MB

Tracklist:
1. Rivages sombres 07:13
2. L'aube 05:01
3. L'heritage du monde 06:43
4. Charognes 05:57
5. Trépas 05:43
6. Errance 08:01
******************************
Total playing time: 38:38



Extended info
Sepulchral Productions


Founded by members and ex-members of Morgue and Outre-Tombe, Trépas is one of the more recent Black Metal outfits emerging from Québec. The band journeys between harsher moments and more atmospheric passages, all complimented by acoustic guitars and just a dash of doomish sensibility, creating a sound that is their very own in the process. A newcomer that is sure to delight fans of the more brooding and melancholic side that scene has been known for!


Technical info
(IMG:https://metalarea.org/images/spectrogram/2019_Dec/bf284bbb515b0cb92c40b959a50edbd8.png)
Input File: 03 L'heritage du monde.mp3
Channels : 2
Sample Rate : 44100
Precision : 16-bit
Duration : 00:06:44.08 = 17820104 samples = 30306.3 CDDA sectors
File Size : 16.2M
Bit Rate : 320k
Sample Encoding: MPEG audio (layer I, II or III)
Comments :
Title=L'heritage du monde
Artist=Trépas
Album=L'Héritage du Monde
Tracknumber=3
Year=2019



Register

Register


Go to the top of the page
  Insert nick Quick quote
+Quote Post
 
Start new topic
Replies (1 - 4)
post Dec 29 2019, 02:00:03
Post #2

Правь статус, ####!111
**************
Group: Металариец
Posts: 4,790
Releases: 1471
From: Brazil
On Forums: 9 years 3 weeks
Thanks: 54385 time(s)
Brazil


Register

mp3@CBR320kbps


Thanks:
(2) nemx, nsk2008,
Go to the top of the page
  Insert nick Quick quote
+Quote Post
post Dec 30 2019, 12:25:18
Post #3

Два Литра
**
Group: Завсегдатай
Posts: 156
Releases: 0
On Forums: 11 years 2 months
Thanks: 38 time(s)
Russian Federation


Неплохо
Go to the top of the page
  Insert nick Quick quote
+Quote Post
post Jan 1 2020, 09:21:07
Post #4

Правь статус, ####!111
**************
Group: Металариец
Posts: 3,537
Releases: 11
From: Dnipro
On Forums: 12 years 7 months
Thanks: 1353 time(s)
Ukraine


На счет облоги (IMG:style_emoticons/default/25.gif)
Go to the top of the page
  Insert nick Quick quote
+Quote Post
post Feb 23 2021, 10:56:16
Post #5

antithesis
**************
Group: Металариец
Posts: 3,285
Releases: 34
From: VRN
On Forums: 10 years 9 months
Thanks: 2093 time(s)
Russian Federation


хорошечно. Канада рулит. (IMG:style_emoticons/default/25.gif)
Go to the top of the page
  Insert nick Quick quote
+Quote Post

Reply to this topicStart new topic
1 User(s) are reading this topic (1 Guests and 0 Anonymous Users)
0 Members:

 



- Lo-Fi Version Support form
Copyrights and abuse reports form
Time is now: 26th February 2021 - 22:53:59