Welcome Guest ( Log In | Register )

> И неформату есть предел.

Рэп/хип-хоп/шансон/поп удаляются. Для них есть свои порталы.

> Дмитрий Ревякин - #снегпеченег (2019), Folk Rock
post Dec 28 2019, 11:43:35
Post #1

Маньяк
**********
Group: Металариец
Posts: 1,030
Releases: 185
On Forums: 11 years 4 months
Thanks: 3710 time(s)
Russian Federation


(IMG:http://metalarea.org/images/audiocovers/2019_Dec/acov_tid331943_thumb.jpg)

*Artist: Дмитрий Ревякин
*Album: #снегпеченег
*Year: 2019
*Genre: Folk Rock
*Country: Russian Federation (IMG:http://metalarea.org/forum/style_images/flags/Russian%20Federation.png)
*Format: mp3@CBR320kbps
*Size: 109MB

Tracklist:
1. Топи зеркал 4:55
2. Апокрифы 3:48
3. Пёс 3:00
4. Снег-печенег 5:42
5. Анархо beat 3:12
6. Плиты 3:58
7. Ангел 2:28
8. Поискать 3:35
9. Держать удар 3:54
10. Рецепторы 4:10
11. Лыжи да салазки (Antifemina) 3:28
12. Жги, сибиряк! 4:08
******************************
Total playing time: 46:18

Preview 1

Extended info


Дмитрий Ревякин представил на CD свой новый сольный альбом «Снег-Печенег».

«Года два назад мы с гитаристом Александром Бадажковым выпустили экспериментальную пластинку — мой сольный альбом «Змееборец». И вот за это время у меня собрался цикл песен, и мы решили опять обратится к нашему совместному творчеству.

«Снег-печенег» получился более песенным. В нем нет таких экспериментов, как декламация или жесткая музыка. Это гитарная работа, надеюсь, что она всем очень понравится».


В буклете сольника разместили стихи Дмитрия Ревякина и благодарность всем, кто участвовал в создании альбома, в том числе – через краудфандинг.


Technical info
(IMG:http://metalarea.org/images/spectrogram/2019_Dec/25451f7a63aba19fe9f6362ad188d674.png)
Input File: 01-Топи зеркал.mp3
Channels : 2
Sample Rate : 44100
Precision : 16-bit
Duration : 00:04:55.96 = 13051836 samples = 22197 CDDA sectors
File Size : 11.8M
Bit Rate : 320k
Sample Encoding: MPEG audio (layer I, II or III)
Comments :
Title=Топи зеркал
Artist=Дмитрий Ревякин
Album=#снегпеченег
Tracknumber=1
Year=2019
Genre=Rock



Register


Go to the top of the page
  Insert nick Quick quote
+Quote Post
 
Start new topic
Replies (1 - 3)
post Dec 29 2019, 09:52:36
Post #2

Маньяк
**********
Group: Металариец
Posts: 1,030
Releases: 185
On Forums: 11 years 4 months
Thanks: 3710 time(s)
Russian Federation


FLAC tracks
Register
Go to the top of the page
  Insert nick Quick quote
+Quote Post
post Jan 4 2020, 18:04:06
Post #3

Правь статус, ####!111
**************
Group: Металариец
Posts: 2,090
Releases: 0
From: Мытищи
On Forums: 12 years 1 month
Thanks: 1228 time(s)
Russian Federation


ЦИТАТА
«Снег-печенег» получился более песенным. В нем нет таких экспериментов, как декламация или жесткая музыка."

"Змееборец" мне был интересен как раз экспериментами, зачастую довольно удачными. К сожалению, большинство наших возрастных рокеров без этого звучат все более и более грустно.. Послушаю "более песенный" сольник.
Go to the top of the page
  Insert nick Quick quote
+Quote Post
post Jan 14 2020, 13:58:35
Post #4

Schuldinerist
**************
Group: Металариец
Posts: 10,535
Releases: 33
From:
On Forums: 13 years 20 hours
Thanks: 6734 time(s)
Russian Federation


При всем моём уважении и любви к Диме этот альбом я не оставлю в личной коллекции.. б/о
Go to the top of the page
  Insert nick Quick quote
+Quote Post

Reply to this topicStart new topic
1 User(s) are reading this topic (1 Guests and 0 Anonymous Users)
0 Members:

 



- Lo-Fi Version Support form
Copyrights and abuse reports form
Time is now: 10th April 2020 - 10:19:08