Welcome Guest ( Log In | Register )

> И неформату есть предел.

Рэп/хип-хоп/шансон/поп удаляются. Для них есть свои порталы.

 
Reply to this topicStart new topic
> Голос Омерики - Хардкор (2017), Punk Rock/Ska
post Dec 29 2019, 14:31:11
Post #1

ME[ta]LLOMAN
**************
Group: Металариец
Posts: 4,966
Releases: 3
From: Avdeyevka
On Forums: 14 years 1 month
Thanks: 1946 time(s)
Honduras


(IMG:http://metalarea.org/images/audiocovers/2019_Dec/acov_tid331995_thumb.jpg)

*Artist: Голос Омерики
*Album: Хардкор
*Year: 2017
*Genre: Punk Rock/Ska
*Country: Russian Federation (IMG:http://metalarea.org/forum/style_images/flags/Russian%20Federation.png)
*Format: mp3@CBR320kbps
*Size: 128MB

Tracklist:
01. Мамбо итальяно
02. Депрессия
03. Долбо*бизм
04. 8 Марта
05. У*бан
06. Гаджет
07. Импотент
08. Х*йня
09. Клубника - облепиха
10. Fuck vegan! (Go cannibal!)
11. Don't stop DJ (feat. Чача Иванов)
12. Дезоморфин
13. На г*вно
14. Паранойя
15. Хардкор
******************************
Total playing time: 55:36

Extended info
Состав Родион Лубенский — вокал, аккордеон, клавиши, слова, музыка
Александр Воробьёв — гитара, банджо, балалайка, бэк-вокал
Сергей Шмельков — бас-гитара, бэк-вокал
Алексей Боев — барабаны
Михаил "Карней" Карнейчик — перкуссия, танцы
Георгий Янковский — скрипка, бэк-вокал


Technical info
(IMG:http://metalarea.org/images/spectrogram/2019_Dec/863edae3f49a8dd176e2fef975633e9b.png)
Input File: 10. Fuck vegan.mp3
Channels : 2
Sample Rate : 44100
Precision : 16-bit
Duration : 00:03:41.86 = 9784202 samples = 16639.8 CDDA sectors
File Size : 8.95M
Bit Rate : 323k
Sample Encoding: MPEG audio (layer I, II or III)
Comments :
Title=Fuck vegan
Artist=Голос Омерики
Album=Хардкор
Tracknumber=10/15
Year=2017
Genre=121
Discnumber=1/1



Register


Thanks:
(2) gwar, VALERY,
Go to the top of the page
  Insert nick Quick quote
+Quote Post

Reply to this topicStart new topic
2 User(s) are reading this topic (2 Guests and 0 Anonymous Users)
0 Members:

 



- Lo-Fi Version Support form
Copyrights and abuse reports form
Time is now: 6th June 2020 - 09:45:46