Welcome Guest ( Log In | Register )

> И неформату есть предел.

Рэп/хип-хоп/шансон/поп удаляются. Для них есть свои порталы.

> Simm - Visitor (2013), Illbient/Dub/Industrial
post Dec 30 2019, 17:52:58
Post #1

Два Литра
**
Group: Завсегдатай
Posts: 175
Releases: 7
From: Санкт-Петербург
On Forums: 13 years 9 months
Thanks: 479 time(s)
Russian Federation


(IMG:http://metalarea.org/images/audiocovers/2019_Dec/acov_tid332048_thumb.jpg)

*Artist: Simm
*Album: Visitor
*Year: 2013
*Genre: Illbient/Dub/Industrial
*Country: Italy (IMG:http://metalarea.org/forum/style_images/flags/Italy.png)
*Format: mp3@CBR320kbps
*Size: 128MB

Tracklist:
01. Leatherface 05:39
02. Visitor 05:58
03. The Wind Is Blowing 06:28
04. Crematorium 05:42
05. Revenge Is Faith 04:22
06. The Sadness Of Things 06:00
07. Herezie 04:56
08. Retribution 05:28
09. Sky Eater 06:08
10. Sparse Ashes 05:17
******************************
Total playing time: 56:03

(IMG:http://metalarea.org/images/youtube.png)

Extended info
Отличный illbient/ambient dub от известнейшего итальянского индустриальщика Eraldo Bernocchi. В духе Scorn, Equations Of Eternity и прочих дабовых проектов Мика Харриса, но со своей изюминкой.


Technical info
(IMG:http://metalarea.org/images/spectrogram/2019_Dec/76a03271eed973d981e39055b487e981.png)
Input File: 01 - Leatherface.mp3
Channels : 2
Sample Rate : 44100
Precision : 16-bit
Duration : 00:05:39.51 = 14972347 samples = 25463.2 CDDA sectors
File Size : 13.6M
Bit Rate : 320k
Sample Encoding: MPEG audio (layer I, II or III)
Comments :
Title=Leatherface
Artist=SIMM
Album=Visitor
Tracknumber=01
Year=2013
Genre=Industrial/Ambient Dub/Illbient



Register


Go to the top of the page
  Insert nick Quick quote
+Quote Post
 
Start new topic
Replies (1 - 2)
post Dec 31 2019, 08:45:57
Post #2

Два Литра
**
Group: Завсегдатай
Posts: 175
Releases: 7
From: Санкт-Петербург
On Forums: 13 years 9 months
Thanks: 479 time(s)
Russian Federation


В неформат это надо бы переместить...
Go to the top of the page
  Insert nick Quick quote
+Quote Post
post Jan 2 2020, 02:12:59
Post #3

врач педиатр-патологоанатом
*****
Group: Металариец
Posts: 472
Releases: 22
From: Кадыкчан
On Forums: 10 years 7 months
Thanks: 474 time(s)
Russian Federation


Годно.
Go to the top of the page
  Insert nick Quick quote
+Quote Post

Reply to this topicStart new topic
1 User(s) are reading this topic (1 Guests and 0 Anonymous Users)
0 Members:

 



- Lo-Fi Version Support form
Copyrights and abuse reports form
Time is now: 21st February 2020 - 04:41:45