Welcome Guest ( Log In | Register )

> И неформату есть предел.

Рэп/хип-хоп/шансон/поп удаляются. Для них есть свои порталы.

> Nox Arcana - The Haunted Symphony (2019), Neoclassical Darkwave
post Dec 31 2019, 14:53:54
Post #1

Group: Подсевший
Posts: 29
Releases: 22
On Forums: 2 months 2 weeks
Thanks: 375 time(s)
Unknown


(IMG:http://metalarea.org/images/audiocovers/2019_Dec/acov_tid332077_thumb.jpg)

*Artist: Nox Arcana
*Album: The Haunted Symphony
*Year: 2019
*Genre: Neoclassical Darkwave
*Country: United States (IMG:http://metalarea.org/forum/style_images/flags/United%20States.png)
*Format: mp3@CBR320kbps
*Size: 145MB

Tracklist:
01. Curse 02:14
02. Ravenwood 02:51
03. Darkfall 03:30
04. Forsaken 02:33
05. Sins of the Past 03:11
06. Requiem 01:47
07. Mourning Hours 02:24
08. Whispering Shadows 01:40
09. Virtuoso 03:00
10. Velvet Darkness 02:51
11. Lords of the Night 03:01
12. Cobwebbed Corridors 02:46
13. Dark Embrace 03:53
14. Crimson Tears 02:39
15. Desolation 03:36
16. The Phantom Waltz 03:34
17. A Touch of Evil 02:33
18. Shattered Reflections 02:46
19. Unleashed 02:46
20. Obsession 03:37
21. Bloodstained Legacy 06:06
******************************
Total playing time: 1:03:18




Extended info
Nox Arcana is renowned for creating haunting, gothic-themed soundscapes with classic horror references, strong literary influences, original and captivating storylines, and hidden riddles and elaborate puzzles. The name Nox Arcana is derived from two Latin words, which roughly translate to "mysteries of the night."


Technical info
(IMG:http://metalarea.org/images/spectrogram/2019_Dec/b1490d9e8d175d0345685339160626f7.png)
Input File: 05. Sins of the Past.mp3
Channels : 2
Sample Rate : 44100
Precision : 16-bit
Duration : 00:03:11.88 = 8462040 samples = 14391.2 CDDA sectors
File Size : 7.82M
Bit Rate : 326k
Sample Encoding: MPEG audio (layer I, II or III)
Comments :
Title=Sins of the Past
Artist=Nox Arcana
Album=The Haunted Symphony
Tracknumber=05
Year=2019



Register


Go to the top of the page
  Insert nick Quick quote
+Quote Post
 
Start new topic
Replies (1 - 2)
post Jan 1 2020, 22:02:54
Post #2

Group: Подсевший
Posts: 10
Releases: 0
On Forums: 10 years 8 months
Thanks: 4 time(s)
Russian Federation


Огромнейшая просьба,перезалейте пожалуйста на мегу...Благодарность за понимание,и с Новым годом!!!


Thanks:
Go to the top of the page
  Insert nick Quick quote
+Quote Post
post Jan 1 2020, 22:14:01
Post #3

Ледоруб
**************
Group: Металариец
Posts: 23,824
Releases: 0
From: Санкт-Петербург
On Forums: 10 years 4 months
Thanks: 8034 time(s)
Russian Federation


Очень своевременно, даже не хочется зарубку оставлять.
Go to the top of the page
  Insert nick Quick quote
+Quote Post

Reply to this topicStart new topic
1 User(s) are reading this topic (1 Guests and 0 Anonymous Users)
0 Members:

 



- Lo-Fi Version Support form
Copyrights and abuse reports form
Time is now: 24th January 2020 - 23:33:28