Welcome Guest ( Log In | Register )

> И неформату есть предел.

Рэп/хип-хоп/шансон/поп удаляются. Для них есть свои порталы.

 
Reply to this topicStart new topic
> Concordia Diaboli - Concordia Diaboli [demo] (2019), Dungeon Synth/Dark Ambient
post Jan 1 2020, 00:45:28
Post #1

Правь статус, ####!111
**************
Group: Металариец
Posts: 4,605
Releases: 1336
From: Brazil
On Forums: 8 years 7 months
Thanks: 49855 time(s)
Brazil


(IMG:https://metalarea.org/images/audiocovers/2020_Jan/acov_tid332092_thumb.jpg)

*Artist: Concordia Diaboli
*Album: Concordia Diaboli [demo]
*Year: 2019
*Genre: Dungeon Synth/Dark Ambient
*Country: France (IMG:https://metalarea.org/forum/style_images/flags/France.png)
*Format: mp3@CBR320kbps
*Size: 83MB

Tracklist:
1. La Charogne de Valachie 10:21
2. Lamentation Foudroyante 08:26
3. Les Sanglots du Manoir 09:03
4. Deambulations Cacophoniques 07:46
******************************
Total playing time: 35:36

(IMG:https://metalarea.org/images/youtube.png)

Extended info
Self-released debut demo from this project, part of the Garde Noire collective, after having previously put out a track on the collective's compilation put out by Les Fleurs du Mal Productions.

A wider repress was just recently out out through Signal Rex.

Haunting, dungeony and crippling Dark Ambient.


Technical info
(IMG:https://metalarea.org/images/spectrogram/2020_Jan/4c763986af7a2b3e71d0aa273d8b46dd.png)
Input File: 04 Deambulations Cacophoniques.mp3
Channels : 2
Sample Rate : 44100
Precision : 16-bit
Duration : 00:07:46.10 = 20555098 samples = 34957.6 CDDA sectors
File Size : 18.8M
Bit Rate : 322k
Sample Encoding: MPEG audio (layer I, II or III)
Comments :
Title=Deambulations Cacophoniques
Artist=Concordia Diaboli
Album=Concordia Diaboli
Tracknumber=4
Year=2018



Register


Thanks:
Go to the top of the page
  Insert nick Quick quote
+Quote Post

Reply to this topicStart new topic
1 User(s) are reading this topic (1 Guests and 0 Anonymous Users)
0 Members:

 



- Lo-Fi Version Support form
Copyrights and abuse reports form
Time is now: 23rd September 2020 - 10:48:40