Welcome Guest ( Log In | Register )

> Правила / Rules

Тут только для чтения лежат низкобитрейтные (<192kbps) релизы, для которых есть аналоги в высокобитрейтных форумах.

Here goes (and stand in read only mode) low bitrate releases (<192kbps) which were already replaced by high bitrate releases in corresponding forums.

Причина закрытия (Borderline1991 04-01-2020):
 
Closed TopicStart new topic
> Atrocity - Abhorrent Defacement Of Purity (2020), Brutal Death Metal/Deathcore
post Jan 1 2020, 21:16:24
Post #1

Каждое ваше "Спасибо" помогает мне понять, что я делаю новости не напрасно.
**************
Group: Металариец
Posts: 2,353
Releases: 2078
From: Одесса
On Forums: 11 years 8 months
Thanks: 18967 time(s)
Ukraine


(IMG:http://metalarea.org/images/audiocovers/2020_Jan/acov_tid332123_thumb.jpg)

*Artist: Atrocity
*Album: Abhorrent Defacement Of Purity
*Year: 2020
*Genre: Brutal Death Metal/Deathcore
*Country: United States (IMG:http://metalarea.org/forum/style_images/flags/United%20States.png)
*Format: mp3@CBR128kbps (IMG:http://metalarea.org/images/bit_low.gif)
*Size: 31MB

Tracklist:
1.Lumen Obscurum 03:07 instrumental
2.The Face of God 03:24
3.Mass of Bloated Entrails 02:43
4.Purity Defaced 03:31
5.Descension 04:45 instrumental
6.Every Child Under Two 03:07
7.The Abhorrent Truth 04:48
8.Exilium 00:43 instrumental
9.Eternally in Decay 02:36
10.Revelation of Blasphemy 03:48
******************************
Total playing time: 32:32



Extended info
Line - up:

Nathan Baird - All instruments (Gnashing of Teeth, Advocate)
Brandon “Slammy McGutterson” Cooper - Vocals (Misanthropogyny, ex-Down Under)


Technical info
(IMG:http://metalarea.org/images/spectrogram/2020_Jan/79095840c746522465441821fec78f7c.png)
Input File: 01. Lumen Obscurum.mp3
Channels : 2
Sample Rate : 44100
Precision : 16-bit
Duration : 00:03:07.72 = 8278232 samples = 14078.6 CDDA sectors
File Size : 3.01M
Bit Rate : 128k
Sample Encoding: MPEG audio (layer I, II or III)
Comments :
Title=Lumen Obscurum
Artist=Atrocity
Album=Abhorrent Defacement of Purity
Tracknumber=1
Year=2020
Genre=Brutal Death Metal, Deathcore



Register


Go to the top of the page
  Insert nick Quick quote
+Quote Post

Причина закрытия (Borderline1991 04-01-2020):
Closed TopicStart new topic
1 User(s) are reading this topic (1 Guests and 0 Anonymous Users)
0 Members:

 



- Lo-Fi Version Support form
Copyrights and abuse reports form
Time is now: 26th February 2020 - 11:51:01