Welcome Guest ( Log In | Register )

> Deliver The Galaxy - The Journey (2020), Melodic Death Metal
post Jan 2 2020, 12:52:48
Post #1

Правь статус, ####!111
**************
Group: Металариец
Posts: 21,173
Releases: 14459
From: Г.Харьков
On Forums: 7 years 10 months
Thanks: 257789 time(s)
Unknown


(IMG:http://metalarea.org/images/audiocovers/2020_Jan/acov_tid332136_thumb.jpg)

*Artist: Deliver The Galaxy
*Album: The Journey
*Year: 2020
*Genre: Melodic Death Metal
*Country: Germany (IMG:http://metalarea.org/forum/style_images/flags/Germany.png)
*Format: mp3@CBR320kbps
*Size: 96MB

Tracklist:
01. The Journey
02. Setius
03. Mind Conflict
04. Take Off
05. The Picture I Draw
06. On Fire
07. Illuminati
08. New Horizons
09. I Declare War
10. Pathfinder
******************************
Total playing time: 41:57



Extended info
Matthias Mente - Guitar/Vocals
Christian Rockstedt - Lead Guitar
Ludwig Sieber - Drums
Danny Stoye - Bass


Technical info
(IMG:http://metalarea.org/images/spectrogram/2020_Jan/9a1e6b6f65542eb9dac9d9652ed2df95.png)
Input File: 4 - Take Off.mp3
Channels : 2
Sample Rate : 44100
Precision : 16-bit
Duration : 00:04:03.27 = 10727987 samples = 18244.9 CDDA sectors
File Size : 9.79M
Bit Rate : 322k
Sample Encoding: MPEG audio (layer I, II or III)
Comments :
Title=Take Off
Artist=Deliver The Galaxy
Album=The Journey
Tracknumber=4
Year=2020
Genre=Metal
Discnumber=1



Register


Go to the top of the page
  Insert nick Quick quote
+Quote Post
 
Start new topic
Replies (1 - 6)
post Jan 2 2020, 20:57:29
Post #2

Маньяк
**********
Group: Металариец
Posts: 1,010
Releases: 4
From: Харьков
On Forums: 11 years 7 months
Thanks: 357 time(s)
Ukraine




Go to the top of the page
  Insert nick Quick quote
+Quote Post
post Jan 3 2020, 13:56:46
Post #3

Маньяк
**********
Group: Металариец
Posts: 1,009
Releases: 182
On Forums: 11 years 4 months
Thanks: 3601 time(s)
Russian Federation


FLAC tracks
Register


Thanks:
(1) Olethros,
Go to the top of the page
  Insert nick Quick quote
+Quote Post
post Jan 3 2020, 16:25:08
Post #4

Full-of-Hate
**************
Group: Металариец
Posts: 3,453
Releases: 0
From: Moscow
On Forums: 10 years 8 months
Thanks: 3135 time(s)
Russian Federation


В похожем стиле когда-то играла группа польская группа Crionics на последнем альбоме, где была приятная дэтовая рубка с "космическими" кнопками.
Здесь же МДМ достаточно похабного уровня с космическими кнопками и уходами в дыж-дыж-модерн. Слово похабный применяется в том контексте, что без космоклавиш материал уныл и слюняв.
Go to the top of the page
  Insert nick Quick quote
+Quote Post
post Jan 4 2020, 11:06:22
Post #5

Три Литра
***
Group: Завсегдатай
Posts: 271
Releases: 0
From: Лыткарино
On Forums: 10 months 2 weeks
Thanks: 61 time(s)
Russian Federation


Вполне неплохо. Местами суховато, но встречаются очень приятные мелодии.
Go to the top of the page
  Insert nick Quick quote
+Quote Post
post Jan 4 2020, 15:16:06
Post #6

Правь статус, ####!111
**************
Group: Металариец
Posts: 2,905
Releases: 8
From: Dnipro
On Forums: 11 years 8 months
Thanks: 923 time(s)
Ukraine


ЦИТАТА(FullofHate @ Jan 3 2020, 17:25:08) *
В похожем стиле когда-то играла группа польская группа Crionics на последнем альбоме, где была приятная дэтовая рубка с "космическими" кнопками.

Не-а, на Crionics не похоже, это точно. Crionics больше под Dimmu Borgir косили, с более death metal влиянием.
Go to the top of the page
  Insert nick Quick quote
+Quote Post
post Jan 16 2020, 12:42:32
Post #7

Ъ
**************
Group: Металариец
Posts: 10,001
Releases: 9
On Forums: 11 years 2 months
Thanks: 1983 time(s)
Sweden


Третьесорт, но в принципе не без неплохих мест, пару раз прогнал.
Go to the top of the page
  Insert nick Quick quote
+Quote Post

Reply to this topicStart new topic
1 User(s) are reading this topic (1 Guests and 0 Anonymous Users)
0 Members:

 



- Lo-Fi Version Support form
Copyrights and abuse reports form
Time is now: 29th March 2020 - 22:48:13