Welcome Guest ( Log In | Register )

> Atrocity - Abhorrent Defacement Of Purity (2020), Brutal Death Metal/Deathcore
post Jan 4 2020, 00:18:35
Post #1

Правь статус, ####!111
**************
Group: Металариец
Posts: 22,300
Releases: 15439
From: Г.Харьков
On Forums: 8 years 1 month
Thanks: 282534 time(s)
Unknown


(IMG:http://metalarea.org/images/audiocovers/2020_Jan/acov_tid332202_thumb.jpg)

*Artist: Atrocity
*Album: Abhorrent Defacement Of Purity
*Year: 2020
*Genre: Brutal Death Metal/Deathcore
*Country: United States (IMG:http://metalarea.org/forum/style_images/flags/United%20States.png)
*Format: mp3@CBR320kbps
*Size: 78MB

Tracklist:
1. Lumen Obscurum 03:07 instrumental
2. The Face of God 03:24
3. Mass of Bloated Entrails 02:43
4. Purity Defaced 03:31
5. Descension 04:45 instrumental
6. Every Child Under Two 03:07
7. The Abhorrent Truth 04:48
8. Exilium 00:43 instrumental
9. Eternally in Decay 02:36
10. Revelation of Blasphemy 03:48
******************************
Total playing time: 32:32




Extended info
Nathan Baird All instruments
Brandon “Slammy McGutterson” Cooper Vocals



Technical info
(IMG:http://metalarea.org/images/spectrogram/2020_Jan/98b11ba2620ad84b6509fedc849b37e2.png)
Input File: 04. Purity Defaced.mp3
Channels : 2
Sample Rate : 44100
Precision : 16-bit
Duration : 00:03:31.74 = 9337602 samples = 15880.3 CDDA sectors
File Size : 8.78M
Bit Rate : 332k
Sample Encoding: MPEG audio (layer I, II or III)
Comments :
Title=Purity Defaced
Artist=Atrocity
Album=Abhorrent Defacement of Purity (320)
Tracknumber=04
Year=2020
Genre=Metal



Register


Go to the top of the page
  Insert nick Quick quote
+Quote Post
 
Start new topic
Replies (1 - 4)
post Jan 4 2020, 14:51:40
Post #2

Правь статус, ####!111
**************
Group: Металариец
Posts: 22,300
Releases: 15439
From: Г.Харьков
On Forums: 8 years 1 month
Thanks: 282534 time(s)
Unknown


FLAC (Tracks) 226 mb
Register


Thanks:
(1) Olethros,
Go to the top of the page
  Insert nick Quick quote
+Quote Post
post Jan 4 2020, 16:07:04
Post #3

Социопат.Маргинал. Мизантроп.Нигилист. Перверзный нарциссист.
**************
Group: Металариец
Posts: 5,570
Releases: 667
From: Город-герой Ленинград
On Forums: 9 years 5 months
Thanks: 6421 time(s)
Russian Federation


Было подумал ,что немцы еще больше дерьмовей говна стали..


Thanks:
Go to the top of the page
  Insert nick Quick quote
+Quote Post
post Jan 4 2020, 16:20:06
Post #4

Total Death
**********
Group: Металариец
Posts: 1,146
Releases: 75
On Forums: 11 years 1 month
Thanks: 1861 time(s)
Unknown


Называть в 10х свою группу Atrocity, еще и будучи американцами, эта пять.


Thanks:
Go to the top of the page
  Insert nick Quick quote
+Quote Post
post Jan 4 2020, 17:56:35
Post #5

Правдоруб)
**************
Group: Металариец
Posts: 2,193
Releases: 1
From: Украина, Днепр
On Forums: 7 years 1 month
Thanks: 1770 time(s)
Ukraine


ЦИТАТА(Герб @ Jan 4 2020, 17:07:04) *
Было подумал ,что немцы еще больше дерьмовей говна стали..

Аналогично... Подумал - скатились ниже того дна, на котором уже были. (IMG:style_emoticons/default/crazy.gif) Ан нет - это вообще левак какой-то (IMG:style_emoticons/default/21.gif)
Go to the top of the page
  Insert nick Quick quote
+Quote Post

Reply to this topicStart new topic
1 User(s) are reading this topic (1 Guests and 0 Anonymous Users)
0 Members:

 



- Lo-Fi Version Support form
Copyrights and abuse reports form
Time is now: 9th July 2020 - 15:47:25