Welcome Guest ( Log In | Register )

> Releases Upload / Добавление релизов

Добавить релиз тут / Click here to add release
Рекомендованные обменники / Recommended file shares

> Bosque - Cleansing (2020), Funeral Doom Metal (D)
post Jan 4 2020, 11:35:53
Post #1

####!111
**************
Group: Металариец
Posts: 3,884
Releases: 127
From: The Mountain Of DOOM
On Forums: 12 years 4 months
Thanks: 5433 time(s)
Russian Federation


(IMG:http://metalarea.org/images/audiocovers/2020_Jan/acov_tid332211_thumb.jpg)

*Artist: Bosque
*Album: Cleansing
*Year: 2020
*Genre: Funeral Doom Metal
*Country: Portugal (IMG:http://metalarea.org/forum/style_images/flags/Portugal.png)
*Format: mp3@CBR320kbps
*Size: 87MB

Tracklist:
1. Movement 11:30
2. Return 07:00
3. Pilgrimage 09:23
4. Static 07:29
******************************
Total playing time: 35:22



Technical info
(IMG:http://metalarea.org/images/spectrogram/2020_Jan/bc572b422e08c5931a0bcdd9903dfd50.png)
Input File: 02 Return.mp3
Channels : 2
Sample Rate : 44100
Precision : 16-bit
Duration : 00:07:00.52 = 18544888 samples = 31538.9 CDDA sectors
File Size : 17.0M
Bit Rate : 324k
Sample Encoding: MPEG audio (layer I, II or III)
Comments :
Title=Return
Artist=Bosque
Album=Cleansing
Tracknumber=2
Year=2020
Genre=Funeral Doom Metal



Register


Go to the top of the page
  Insert nick Quick quote
+Quote Post
 
Start new topic
Replies (1 - 6)
post Jan 4 2020, 17:02:02
Post #2

Правь статус, ####!111
**************
Group: Металариец
Posts: 2,855
Releases: 8
From: Dnipro
On Forums: 11 years 7 months
Thanks: 910 time(s)
Ukraine


Это не Funeral Doom Metal, это реально: https://kakahi.ru/upload/post/big/3139044611452947312.jpg
Go to the top of the page
  Insert nick Quick quote
+Quote Post
post Jan 4 2020, 17:08:00
Post #3

####!111
**************
Group: Металариец
Posts: 3,884
Releases: 127
From: The Mountain Of DOOM
On Forums: 12 years 4 months
Thanks: 5433 time(s)
Russian Federation


Ну, звук традиционно как на картинке выше.
А вот нормальные мелодии присутствуют, в отличие от некоторых более популярных групп жанра
Go to the top of the page
  Insert nick Quick quote
+Quote Post
post Jan 4 2020, 20:24:55
Post #4

Правь статус, ####!111
**************
Group: Металариец
Posts: 2,855
Releases: 8
From: Dnipro
On Forums: 11 years 7 months
Thanks: 910 time(s)
Ukraine


ЦИТАТА(Un4given @ Jan 4 2020, 18:08:00) *
Ну, звук традиционно как на картинке выше.
А вот нормальные мелодии присутствуют, в отличие от некоторых более популярных групп жанра

Ну а вокал? Куда он такой годится?
Уж точно наверное не для funeral doom в классическом понимании.
Go to the top of the page
  Insert nick Quick quote
+Quote Post
post Jan 5 2020, 00:10:34
Post #5

Group: Подсевший
Posts: 27
Releases: 0
On Forums: 2 years 3 weeks
Thanks: 6 time(s)
Belarus


Качественного звука и мелодий, материал лишен напрочь. Бездарность.
Go to the top of the page
  Insert nick Quick quote
+Quote Post
post Jan 5 2020, 12:05:24
Post #6

Литр
*
Group: Подсевший
Posts: 75
Releases: 0
On Forums: 10 years 4 months
Thanks: 5 time(s)
Unknown


Немного смахивает на Pantheist
Go to the top of the page
  Insert nick Quick quote
+Quote Post
post Jan 5 2020, 13:48:26
Post #7

####!111
**************
Group: Металариец
Posts: 3,884
Releases: 127
From: The Mountain Of DOOM
On Forums: 12 years 4 months
Thanks: 5433 time(s)
Russian Federation


GRAF,
реинкарнация DeathCover?

ЦИТАТА(isvili @ 4th January 2020 - 23:24:55) *
Ну а вокал? Куда он такой годится?

а что с ним не так?

This post has been edited by Un4given: Jan 5 2020, 17:31:34
Go to the top of the page
  Insert nick Quick quote
+Quote Post

Reply to this topicStart new topic
2 User(s) are reading this topic (2 Guests and 0 Anonymous Users)
0 Members:

 



- Lo-Fi Version Support form
Copyrights and abuse reports form
Time is now: 28th February 2020 - 02:54:03