Welcome Guest ( Log In | Register )

 
Reply to this topicStart new topic
> Squadron - The Flame Still Burns (2019), Thrash/Death/Groove Metal (D5)
post Jan 4 2020, 17:43:04
Post #1

Правь статус, ####!111
**************
Group: Металариец
Posts: 2,922
Releases: 2617
From: Одесса
On Forums: 12 years 1 month
Thanks: 25214 time(s)
Ukraine


(IMG:http://metalarea.org/images/audiocovers/2020_Jan/acov_tid332225_thumb.jpg)

*Artist: Squadron
*Album: The Flame Still Burns
*Year: 2019
*Genre: Thrash/Death/Groove Metal
*Country: United Kingdom (IMG:http://metalarea.org/forum/style_images/flags/United%20Kingdom.png)
*Format: mp3@CBR320kbps
*Size: 207MB

Tracklist:
1.The Flame Still Burns
2.Indoctrination
3.Defend Europe
4.The Truth Is Out There
5.Living in a Ghetto
6.The Root of All Evil
7.Sacred Bloodlines
8.Savages
9.Allfather Hail!
10.Do Right and Fear No-One
******************************
Total playing time: 44:23



Extended info
Line - up:

Brad - Bass (ex-Eye of Odin, Bulldog Breed)
Jim - Vocals, Guitars (ex-Brutal Attack, ex-Bulldog Breed, ex-Sudden Impact)

(IMG:https://www.metal-archives.com/images/2/0/0/4/20049_photo.jpg?1300)


Technical info
(IMG:http://metalarea.org/images/spectrogram/2020_Jan/0db3940e6416351a563c129cd15615d5.png)
Input File: 04. The Truth Is Out There.mp3
Channels : 2
Sample Rate : 44100
Precision : 16-bit
Duration : 00:04:18.76 = 11411316 samples = 19407 CDDA sectors
File Size : 10.4M
Bit Rate : 320k
Sample Encoding: MPEG audio (layer I, II or III)
Comments :
Title=The Truth Is Out There
Artist=Squadron
Album=The Flame Still Burns
Tracknumber=4
Year=2019
Genre=Thrash/Death/Groove Metal



Register


Go to the top of the page
  Insert nick Quick quote
+Quote Post

Reply to this topicStart new topic
1 User(s) are reading this topic (1 Guests and 0 Anonymous Users)
0 Members:

 



- Lo-Fi Version Support form
Copyrights and abuse reports form
Time is now: 14th July 2020 - 10:14:35