Welcome Guest ( Log In | Register )

> И неформату есть предел.

Рэп/хип-хоп/шансон/поп удаляются. Для них есть свои порталы.

 
Reply to this topicStart new topic
> Paint The Sky Red - Not All Who Wonder Are Lost (2015), Post-Rock
post Jan 4 2020, 22:20:56
Post #1

Три Литра
***
Group: Завсегдатай
Posts: 248
Releases: 7
From: Житомир
On Forums: 12 years 2 months
Thanks: 186 time(s)
Ukraine


(IMG:http://metalarea.org/images/audiocovers/2020_Jan/acov_tid332239_thumb.jpg)

*Artist: Paint The Sky Red
*Album: Not All Who Wonder Are Lost
*Year: 2015
*Genre: Post-Rock
*Country: Singapore (IMG:http://metalarea.org/forum/style_images/flags/Singapore.png)
*Format: mp3@CBR320kbps
*Size: 124MB

Tracklist:
1.To Everness 06:30
2.While We Sleepwalk 06:55
3.ABX 08:08
4.Victory 10:35
5.The Happy Ending Is You 11:15
6.Beyond The Breeze 11:11
******************************
Total playing time: 54:34



Technical info
(IMG:http://metalarea.org/images/spectrogram/2020_Jan/f7c5e4cff48434f94458b906e75e729d.png)
Input File: 04. Victory.mp3
Channels : 2
Sample Rate : 44100
Precision : 16-bit
Duration : 00:10:35.10 = 28007954 samples = 47632.6 CDDA sectors
File Size : 25.7M
Bit Rate : 324k
Sample Encoding: MPEG audio (layer I, II or III)
Comments :
Title=Victory
Artist=Paint The Sky Red
Album=Not All Who Wonder Are Lost
Tracknumber=4
Year=2015
Genre=Post-Rock



Register


Thanks:
(1) Olethros,
Go to the top of the page
  Insert nick Quick quote
+Quote Post

Reply to this topicStart new topic
2 User(s) are reading this topic (2 Guests and 0 Anonymous Users)
0 Members:

 



- Lo-Fi Version Support form
Copyrights and abuse reports form
Time is now: 30th March 2020 - 06:25:38