Welcome Guest ( Log In | Register )

> Releases Upload / Добавление релизов

Добавить релиз тут / Click here to add release
Рекомендованные обменники / Recommended file shares

> Ascese - Brosnung Ond Anforlætan [ep] (2020), Atmospheric/Depressive Black Metal
post Jan 5 2020, 11:54:23
Post #1

Маньяк
**********
Group: Металариец
Posts: 1,066
Releases: 897
From: Новороссийск
On Forums: 8 years 10 months
Thanks: 16538 time(s)
Russian Federation


(IMG:https://metalarea.org/images/audiocovers/2020_Jan/acov_tid332253_thumb.jpg)

*Artist: Ascese
*Album: Brosnung Ond Anforlætan [ep]
*Year: 2020
*Genre: Atmospheric/Depressive Black Metal
*Country: Netherlands (IMG:https://metalarea.org/forum/style_images/flags/Netherlands.png)
*Format: mp3@CBR320kbps
*Size: 85MB

Tracklist:
01. Brosnung 13:03
02. Anforlætan 12:27
03. Æþel Eastƿeg (Walknut cover) 11:43
******************************
Total playing time: 37:14



Technical info
(IMG:https://metalarea.org/images/spectrogram/2020_Jan/270eb1aed79636f5fc3a179fcdbb6d13.png)
Input File: 01. Brosnung.mp3
Channels : 2
Sample Rate : 44100
Precision : 16-bit
Duration : 00:13:03.62 = 34557422 samples = 58771.1 CDDA sectors
File Size : 31.3M
Bit Rate : 320k
Sample Encoding: MPEG audio (layer I, II or III)
Comments :
Title=Brosnung
Artist=Ascese
Album=Brosnung Ond Anforlætan
Tracknumber=01
Year=2020
Genre=Black Metal



Register


Go to the top of the page
  Insert nick Quick quote
+Quote Post
 
Start new topic
Replies (1 - 1)
post Feb 11 2020, 11:26:46
Post #2

Group: Подсевший
Posts: 34
Releases: 14
On Forums: 10 years 7 months
Thanks: 251 time(s)
Ukraine


Довольно годный воздушно-приглушенный атмоблэк.
Go to the top of the page
  Insert nick Quick quote
+Quote Post

Reply to this topicStart new topic
1 User(s) are reading this topic (1 Guests and 0 Anonymous Users)
0 Members:

 



- Lo-Fi Version Support form
Copyrights and abuse reports form
Time is now: 29th February 2020 - 03:56:58