Welcome Guest ( Log In | Register )

> И неформату есть предел.

Рэп/хип-хоп/шансон/поп удаляются. Для них есть свои порталы.

> Whoredom Rife Emissary - Vinternatt [ep] (2019), Neofolk
post Jan 6 2020, 05:20:16
Post #1

Правь статус, ####!111
**************
Group: Металариец
Posts: 20,607
Releases: 14064
From: Г.Харьков
On Forums: 7 years 9 months
Thanks: 248012 time(s)
Unknown


(IMG:http://metalarea.org/images/audiocovers/2020_Jan/acov_tid332285_thumb.jpg)

*Artist: Whoredom Rife Emissary
*Album: Vinternatt [ep]
*Year: 2019
*Genre: Neofolk
*Country: Norway (IMG:http://metalarea.org/forum/style_images/flags/Norway.png)
*Format: mp3@CBR320kbps
*Size: 36MB

Tracklist:
1. Vinternatt 04:19
2. Spir (Acoustic) 03:20
3. Beyond the Skies of God (Acoustic) 04:56
4. Solverv 02:57
******************************
Total playing time: 15:32





Extended info
Today is winter solstice, the darkest night of the year.
We appropriately present Emissary, a sub-project under the banner of Whoredom Rife.
The aim is to display a more low-key side to the band, and to appeal to the listener in a different way. The idea is that both projects can interact with eachother, yet stand on their own.
As the name suggests, Emissary is a solo project on behalf of Whoredom Rife, but with the same names and ideas involved.

So without further ado, let's celebrate reality and the return of the sun.

V. Einride All instruments
See also: From the Vastland (live), Gorgoroth (live), Vemod (live), ex-Headspin, ex-Aptorian Demon, ex-Chton, ex-Goat the Head, ex-Keep of Kalessin, ex-Noctiluca
K.R Vocals
See also: ex-Bloodthorn, ex-Noctiluca


Technical info
(IMG:http://metalarea.org/images/spectrogram/2020_Jan/c3a7fb09fb761e91226e8031981a0412.png)
Input File: 01 - Vinternatt.mp3
Channels : 2
Sample Rate : 44100
Precision : 16-bit
Duration : 00:04:20.04 = 11467764 samples = 19503 CDDA sectors
File Size : 10.5M
Bit Rate : 323k
Sample Encoding: MPEG audio (layer I, II or III)
Comments :
Title=Vinternatt
Artist=Whoredom Rife
Album=Vinternatt
Tracknumber=1
Year=2019-12-22
Genre=Alternative; Indie Pop; Indie Rock
Discnumber=1



Register


Go to the top of the page
  Insert nick Quick quote
+Quote Post
 
Start new topic
Replies (1 - 3)
post Jan 6 2020, 17:59:39
Post #2

Четыре Литра
****
Group: Металариец
Posts: 321
Releases: 20
From: France
On Forums: 10 years 6 months
Thanks: 566 time(s)
France


For those who wonder :
QUOTE
.:Whoredom Rife Emissary:.

Today is winter solstice, the darkest night of the year.
We appropriately present Emissary, a sub-project under the banner of Whoredom Rife.
The aim is to display a more low-key side to the band, and to appeal to the listener in a different way. The idea is that both projects can interact with eachother, yet stand on their own.
As the name suggests, Emissary is a solo project on behalf of Whoredom Rife, but with the same names and ideas involved.

So without further ado, let's celebrate reality and the return of the sun.

V.


Thanks:
Go to the top of the page
  Insert nick Quick quote
+Quote Post
post Jan 6 2020, 23:39:23
Post #3

Detective Godzilla
Group Icon
Group: Moderation team
Posts: 3,344
Releases: 289
On Forums: 9 years 1 week
Thanks: 10468 time(s)
Russian Federation


Перенес в оффтоп. Нужно было заранее отмодерить релиз и поменять. В коллекции лежит давно купленный.
Go to the top of the page
  Insert nick Quick quote
+Quote Post
post Jan 8 2020, 10:47:39
Post #4

Group: Подсевший
Posts: 11
Releases: 0
On Forums: 1 month 1 week
Thanks: 0 time(s)
Russian Federation


Очень приятный нордический фолк! Чем то напомнил Квельдсангер Ульвера только менее меланхоличный
Go to the top of the page
  Insert nick Quick quote
+Quote Post

Reply to this topicStart new topic
1 User(s) are reading this topic (1 Guests and 0 Anonymous Users)
0 Members:

 



- Lo-Fi Version Support form
Copyrights and abuse reports form
Time is now: 18th February 2020 - 12:18:03