Welcome Guest ( Log In | Register )

> Releases Upload / Добавление релизов

Добавить релиз тут / Click here to add release
Рекомендованные обменники / Recommended file shares

> Whorrecane - Whorrecane (2019), Melodic Groove Metal/Metalcore
post Jan 6 2020, 20:16:35
Post #1

Каждое ваше "Спасибо" помогает мне понять, что я делаю новости не напрасно.
**************
Group: Металариец
Posts: 2,269
Releases: 2001
From: Одесса
On Forums: 11 years 7 months
Thanks: 17841 time(s)
Ukraine


(IMG:http://metalarea.org/images/audiocovers/2020_Jan/acov_tid332318_thumb.jpg)

*Artist: Whorrecane
*Album: Whorrecane
*Year: 2019
*Genre: Melodic Groove Metal/Metalcore
*Country: Poland (IMG:http://metalarea.org/forum/style_images/flags/Poland.png)
*Format: mp3@CBR320kbps
*Size: 112MB

Tracklist:
1.The Blackout 04:35
2.Deadly Embrace 04:11
3.Inspektor Lowe 02:01
4.Blood Red Skies 04:27
5.Projecting AM 03:20
6.Unresistance 03:43
7.Down Below 03:13
8.Supreme Deity 04:43
9.My Abstinance 04:33
10.The Black Ink 04:20
11.Shellshock 04:15
12.The End of Heartche (Killswitch Engage cover) 04:07
******************************
Total playing time: 47:28



Extended info
Line - up:

Daniel Lechmański - Guitars (ex-Chain Reaction, ex-Corruption, ex-Exlibris)
Bartek "Barton" Szarek - Vocals (ex-Lostbone, ex-Chain Reaction, ex-Seth)
Piotr Torbicz - Bass (Exlibris, Qube)
Daniel Szreder - Drums

(IMG:https://f4.bcbits.com/img/0007563444_10.jpg)


Technical info
(IMG:http://metalarea.org/images/spectrogram/2020_Jan/b91fc6518d0be49d24e9b657bbbb7a2c.png)
Input File: 06. Unresistance.mp3
Channels : 2
Sample Rate : 44100
Precision : 16-bit
Duration : 00:03:43.39 = 9851411 samples = 16754.1 CDDA sectors
File Size : 8.94M
Bit Rate : 320k
Sample Encoding: MPEG audio (layer I, II or III)
Comments :
Title=Unresistance
Artist=Whorrecane
Album=Whorrecane
Tracknumber=6
Year=2019
Genre=Melodic Groove Metal/Metalcore



Register


Go to the top of the page
  Insert nick Quick quote
+Quote Post
 
Start new topic
Replies (1 - 1)
post Jan 14 2020, 14:07:16
Post #2

Ъ
**************
Group: Металариец
Posts: 9,870
Releases: 9
On Forums: 11 years 2 weeks
Thanks: 1941 time(s)
Sweden


Третьесорт.
Go to the top of the page
  Insert nick Quick quote
+Quote Post

Reply to this topicStart new topic
2 User(s) are reading this topic (2 Guests and 0 Anonymous Users)
0 Members:

 



- Lo-Fi Version Support form
Copyrights and abuse reports form
Time is now: 23rd January 2020 - 23:38:13