Welcome Guest ( Log In | Register )

> И неформату есть предел.

Рэп/хип-хоп/шансон/поп удаляются. Для них есть свои порталы.

 
Reply to this topicStart new topic
> Foo Fighters - 00959525 [ep] (2020), Alternative Rock/Grunge
post Jan 6 2020, 21:20:33
Post #1

MDM-Thrash Metal
**************
Group: Металариец
Posts: 9,203
Releases: 767
From: Одесса
On Forums: 12 years 5 months
Thanks: 20680 time(s)
Ukraine


(IMG:http://metalarea.org/images/audiocovers/2020_Jan/acov_tid332319_thumb.jpg)

*Artist: Foo Fighters
*Album: 00959525 [ep]
*Year: 2020
*Genre: Alternative Rock/Grunge
*Country: United States (IMG:http://metalarea.org/forum/style_images/flags/United%20States.png)
*Format: mp3@CBR320kbps
*Size: 60MB

Tracklist:
01. Winnebago
02. Podunk
03. How I Miss You
04. Ozone
05. Floaty (Live at BBC Evening Session, London, UK – November 1995)
06. Alone + Easy Target (Live at BBC Evening Session, London, UK – November 1995)
******************************
Total playing time: 26:12


(IMG:http://metalarea.org/images/youtube.png)
(IMG:http://metalarea.org/images/youtube.png)
(IMG:http://metalarea.org/images/youtube.png)

Technical info
(IMG:http://metalarea.org/images/spectrogram/2020_Jan/063e5f7dad13be8c612399fdf8aa14b9.png)
Input File: 02. Podunk.mp3
Channels : 2
Sample Rate : 44100
Precision : 16-bit
Duration : 00:03:03.86 = 8108358 samples = 13789.7 CDDA sectors
File Size : 7.49M
Bit Rate : 326k
Sample Encoding: MPEG audio (layer I, II or III)
Comments :
Title=Podunk
Artist=Foo Fighters
Album=00959525
Tracknumber=2/6
Year=2020
Genre=17
Discnumber=1/1



Register


Thanks:
(2) gwar, Olethros,
Go to the top of the page
  Insert nick Quick quote
+Quote Post

Reply to this topicStart new topic
1 User(s) are reading this topic (1 Guests and 0 Anonymous Users)
0 Members:

 



- Lo-Fi Version Support form
Copyrights and abuse reports form
Time is now: 25th January 2020 - 01:02:39