Welcome Guest ( Log In | Register )

> И неформату есть предел.

Рэп/хип-хоп/шансон/поп удаляются. Для них есть свои порталы.

 
Reply to this topicStart new topic
> Simm - Welcome (1996), Illbient/Ambient Dub/Industrial
post Jan 7 2020, 11:15:03
Post #1

Два Литра
**
Group: Завсегдатай
Posts: 190
Releases: 7
From: Санкт-Петербург
On Forums: 13 years 9 months
Thanks: 571 time(s)
Russian Federation


(IMG:http://metalarea.org/images/audiocovers/2020_Jan/acov_tid332325_thumb.jpg)

*Artist: Simm
*Album: Welcome
*Year: 1996
*Genre: Illbient/Ambient Dub/Industrial
*Country: Italy (IMG:http://metalarea.org/forum/style_images/flags/Italy.png)
*Format: mp3@CBR320kbps
*Size: 146MB

Tracklist:
01. Clown 05:09
02. Some Silences 07:43
03. Hollow 05:35
04. Frozen Chances 06:26
05. The Crawl Space 07:12
06. These Days (Stalker Mix) 06:58
07. Pillhead 04:58
08. Crash 05:42
09. Welcome 05:35
10. Him (bonus track) 03:53
11. Backstage Sonic (bonus track) 05:41
******************************
Total playing time: 1:04:53

(IMG:http://metalarea.org/images/youtube.png)

Extended info
Eraldo Bernocchi (Sigillum S, Equations Of Eternity, Black Engine, Metallic Taste Of Blood, Obake, etc.)


Technical info
(IMG:http://metalarea.org/images/spectrogram/2020_Jan/37c0eaf89faea5aaeddad39ced490a3f.png)
Input File: 01 - Clown.mp3
Channels : 2
Sample Rate : 44100
Precision : 16-bit
Duration : 00:05:08.92 = 13623284 samples = 23168.9 CDDA sectors
File Size : 12.4M
Bit Rate : 320k
Sample Encoding: MPEG audio (layer I, II or III)
Comments :
Title=Clown
Artist=SIMM
Album=Welcome (reissue 1998)
Tracknumber=01
Year=1996
Genre=Industrial/Ambient Dub/Illbient



Register


Go to the top of the page
  Insert nick Quick quote
+Quote Post

Reply to this topicStart new topic
1 User(s) are reading this topic (1 Guests and 0 Anonymous Users)
0 Members:

 



- Lo-Fi Version Support form
Copyrights and abuse reports form
Time is now: 29th February 2020 - 05:15:58